<?xml version="1.0" encoding="UTF-8"?>
<svg height="100%" width="100%" xmlns="http://www.w3.org/2000/svg">
	<defs>
		<font horiz-adv-x="610" id="web">
			<font-face alphabetic="0" ascent="992" descent="-290" font-family="" panose-1="2 11 8 5 2 2 2 9 2 3"/>
			<missing-glyph d="M49 718H561V0H49ZM99 667V50H511V667ZM308 609Q363 609 397 573T432 478Q432 444 419 418T369 358Q344 335 334 321T322 290T320 234H274L272 251Q272 300 283 327T331 391Q358 417 369 434T381 474Q381 515 359 537T305 559Q272 559 250 536T223 464L173 472Q179 541 215 575T308 609ZM271 184H327V117H271Z"/>
			<glyph d="" horiz-adv-x="262" unicode=" "/>
			<glyph d="M176 708H297L250 417L211 227H110L129 417ZM145 136Q208 136 208 80Q208 40 187 15T124 -9Q61 -9 61 46Q61 87 81 111T145 136Z" horiz-adv-x="329" unicode="!"/>
			<glyph d="M164 708H261L210 451H124ZM341 708H438L387 451H301Z" horiz-adv-x="460" unicode="&quot;"/>
			<glyph d="M288 648H383L341 488H504L546 648H641L599 488H711V412H579L533 236H644V160H513L471 0H376L418 160H255L213 0H118L160 160H48V236H180L226 412H115V488H246ZM321 412L275 236H438L484 412Z" horiz-adv-x="759" unicode="#"/>
			<glyph d="M342 752H440L428 679Q525 669 592 613L536 543Q499 567 460 578T372 590Q312 590 275 566T238 501Q238 465 263 448T355 416Q449 395 496 352T543 231Q543 150 481 96T325 31L314 -44H216L228 30Q113 39 46 100L107 172Q141 146 179 134T268 123Q337 123 378 151T420 229Q420 256 407 272T370 298T296 322Q205 345 162 383T120 496Q120 569 179 618T330 679Z" unicode="$"/>
			<glyph d="M309 723Q398 723 450 673T503 543Q503 474 470 417T380 326T253 293Q164 293 110 341T56 471Q56 492 58 503Q66 565 100 615T188 694T309 723ZM752 709H867L340 0H225ZM299 626Q238 626 204 583T171 480Q171 439 193 414T261 390Q320 390 353 431T387 535Q387 576 365 601T299 626ZM883 419Q972 419 1024 369T1077 239Q1077 170 1044 113T954 22T827 -11Q738 -11 684 37T630 167Q630 188 632 199Q640 261 674 311T762 390T883 419ZM873 322Q812 322 778 279T745 176Q745 135 767 110T835 86Q894 86 927 127T961 231Q961 272 939 297T873 322Z" horiz-adv-x="1174" unicode="%"/>
			<glyph d="M360 726Q448 726 498 686T548 580Q548 509 501 458T367 368L499 223Q538 289 554 358L663 333Q636 240 568 149L646 64L562 -15L491 65Q440 24 384 4T257 -15Q154 -15 93 36T32 176Q32 247 74 297T203 388Q172 426 156 460T141 534Q141 592 170 635T249 702T360 726ZM358 633Q314 633 289 606T264 535Q264 508 273 485T303 437Q367 467 397 497T427 577Q427 603 409 618T358 633ZM266 317Q212 289 187 259T162 180Q162 142 189 117T267 92Q358 92 423 141Z" horiz-adv-x="687" unicode="&amp;"/>
			<glyph d="M164 708H261L210 451H124Z" horiz-adv-x="284" unicode="'"/>
			<glyph d="M335 838L405 786Q323 681 270 579T197 353Q188 290 188 235Q188 148 208 71T264 -83L183 -129Q128 -37 94 56T61 256Q61 301 69 355Q91 493 161 610T335 838Z" horiz-adv-x="376" unicode="("/>
			<glyph d="M224 838Q279 748 312 654T346 453Q346 408 338 354Q316 216 245 99T72 -129L2 -77Q85 28 137 129T209 356Q219 416 219 474Q219 562 199 639T143 792Z" horiz-adv-x="376" unicode=")"/>
			<glyph d="M168 708H264L255 598L356 642L385 551L279 527L351 444L273 387L217 481L160 387L82 444L154 527L48 551L78 642L178 598ZM217 547L216 546L217 545Z" horiz-adv-x="427" unicode="*"/>
			<glyph d="M288 487H392L368 337H516L501 241H353L328 87H224L249 241H101L116 337H264Z" unicode="+"/>
			<glyph d="M119 136Q151 136 169 118T187 68Q187 58 185 42Q175 -20 140 -72T22 -192L-17 -150Q30 -108 54 -73T88 1Q37 9 37 57Q37 91 58 113T119 136Z" horiz-adv-x="284" unicode=","/>
			<glyph d="M51 341H284L269 245H36Z" horiz-adv-x="311" unicode="-"/>
			<glyph d="M118 136Q181 136 181 80Q181 40 160 15T97 -9Q34 -9 34 46Q34 87 54 111T118 136Z" horiz-adv-x="276" unicode="."/>
			<glyph d="M423 791H527L167 -87H62Z" horiz-adv-x="560" unicode="/"/>
			<glyph d="M370 726Q481 726 538 657T596 459Q596 409 587 349Q528 -18 268 -18Q157 -18 100 50T43 249Q43 299 52 359Q81 540 160 633T370 726ZM366 621Q285 621 241 554T177 349Q166 277 166 229Q166 157 191 122T272 87Q354 87 397 153T462 359Q473 431 473 477Q473 550 448 585T366 621Z" unicode="0"/>
			<glyph d="M366 708H479L384 104H531L515 0H51L67 103H258L334 581L141 493L106 583Z" unicode="1"/>
			<glyph d="M358 725Q431 725 483 699T561 630T588 536Q588 460 545 395T435 275T238 127Q214 111 202 102L540 104L524 0H14L28 98Q73 132 139 180Q253 264 315 315T417 420T457 526Q457 569 426 596T342 623Q291 623 247 602T158 540L87 613Q150 670 212 697T358 725Z" unicode="2"/>
			<glyph d="M356 726Q461 726 518 679T575 555Q575 483 533 435T418 371L417 370Q472 362 508 329T544 238Q544 160 504 102T396 13T240 -18Q157 -18 98 8T-6 86L69 157Q108 118 147 102T244 86Q319 86 368 125T418 232Q418 277 391 296T310 316H194L209 416H303Q370 416 409 450T448 544Q448 624 336 624Q288 624 244 607T155 558L96 636Q158 683 221 704T356 726Z" unicode="3"/>
			<glyph d="M320 708H455L162 260H372L401 444H522L493 260H582L566 156H477L452 0H332L356 156H4L18 249Z" unicode="4"/>
			<glyph d="M162 708H594L577 604H264L234 422Q295 447 367 447Q456 447 509 396T563 256Q563 175 522 112T410 16T250 -18Q165 -18 106 8T3 86L82 157Q122 119 160 103T255 87Q306 87 347 107T411 164T434 247Q434 296 403 322T321 349Q283 349 252 341T185 317L100 318Z" unicode="5"/>
			<glyph d="M422 726Q516 726 589 678L534 595Q483 627 421 627Q337 627 277 569T190 406Q232 437 278 452T379 468Q468 468 523 417T578 280Q578 197 538 129T430 21T275 -18Q159 -18 99 48T40 231Q40 270 48 321Q68 444 118 535T246 676T422 726ZM346 373Q299 373 254 352T170 296Q164 254 164 219Q164 152 192 118T279 84Q331 84 370 110T430 179T451 275Q451 324 423 348T346 373Z" unicode="6"/>
			<glyph d="M110 708H642L628 608Q485 476 391 322T260 0H118Q170 182 257 326T477 605L93 603Z" unicode="7"/>
			<glyph d="M372 726Q434 726 484 705T564 647T593 561Q593 499 554 452T447 371Q510 344 539 308T569 217Q569 142 528 89T418 9T265 -18Q188 -18 132 5T48 69T19 161Q19 241 63 291T191 377Q107 430 107 516Q107 581 143 629T240 701T372 726ZM369 634Q309 634 269 603T230 519Q230 488 250 464T316 421L351 408Q469 473 469 554Q469 592 442 613T369 634ZM286 337Q221 313 185 271T150 171Q150 127 182 103T273 80Q350 80 396 116T442 215Q442 250 417 272T331 320Z" unicode="8"/>
			<glyph d="M368 726Q481 726 541 662T601 483Q601 444 593 391Q563 197 432 91T80 -14L91 89Q235 89 328 146T452 310Q366 244 264 244Q206 244 160 268T89 337T63 443Q63 523 103 587T213 689T368 726ZM361 625Q309 625 270 601T210 537T189 447Q189 395 218 367T299 339Q392 339 472 417Q478 461 478 495Q478 625 361 625Z" unicode="9"/>
			<glyph d="M121 136Q184 136 184 80Q184 40 163 15T100 -9Q37 -9 37 46Q37 87 57 111T121 136ZM173 485Q236 485 236 429Q236 389 215 364T152 340Q89 340 89 395Q89 436 109 460T173 485Z" horiz-adv-x="279" unicode=":"/>
			<glyph d="M119 136Q151 136 169 118T187 68Q187 58 185 42Q175 -20 140 -72T22 -192L-17 -150Q30 -108 54 -73T88 1Q37 9 37 57Q37 91 58 113T119 136ZM171 485Q234 485 234 429Q234 389 213 364T150 340Q87 340 87 395Q87 436 107 460T171 485Z" horiz-adv-x="284" unicode=";"/>
			<glyph d="M492 536L530 455L225 279L474 103L416 32L107 237L120 327Z" unicode="&lt;"/>
			<glyph d="M137 438H528L513 341H122ZM105 238H496L481 141H90Z" unicode="="/>
			<glyph d="M201 536L510 331L497 240L126 32L87 113L392 289L143 465Z" unicode="&gt;"/>
			<glyph d="M315 725Q409 725 464 677T520 549Q520 497 498 458T445 394T366 338Q319 308 296 287T271 241L269 227H154L159 259Q166 307 196 337T282 403Q319 427 340 444T375 485T390 541Q390 580 366 601T298 623Q248 623 209 604T128 544L60 613Q115 670 176 697T315 725ZM207 136Q270 136 270 80Q270 40 249 15T186 -9Q123 -9 123 46Q123 87 143 111T207 136Z" horiz-adv-x="513" unicode="?"/>
			<glyph d="M493 681Q620 681 707 637T837 516T880 340Q880 220 833 151T709 83Q658 83 623 109T581 179Q527 84 422 84Q351 84 311 130T271 251Q271 321 297 378T378 470T512 505Q559 505 602 491T679 454L651 258Q649 238 649 231Q649 193 665 176T708 159Q743 159 761 201T779 338Q779 596 492 596Q388 596 318 555T216 443T183 284Q183 136 261 57T492 -21Q547 -21 598 -12T685 10L711 -68Q668 -85 610 -96T488 -107Q363 -107 271 -60T129 75T80 283Q80 393 130 483T275 627T493 681ZM506 429Q439 429 407 377T375 251Q375 166 445 166Q488 166 517 204T556 300L573 414Q545 429 506 429Z" horiz-adv-x="960" unicode="@"/>
			<glyph d="M336 708H465L618 0H485L457 155H173L92 0H-43ZM382 582L220 251H440Z" horiz-adv-x="658" unicode="A"/>
			<glyph d="M150 708H407Q492 708 549 671T606 558Q606 491 566 440T458 374V372Q514 363 548 326T582 231Q582 120 506 60T305 0H38ZM257 613L225 411H342Q406 411 441 445T477 538Q477 577 449 595T368 613ZM210 322L175 97H295Q370 97 412 133T454 237Q454 322 337 322Z" horiz-adv-x="627" unicode="B"/>
			<glyph d="M461 728Q529 728 592 703T696 636L617 561Q550 620 452 620Q368 620 307 575T215 454T184 285Q184 196 229 144T368 92Q462 92 554 162L618 80Q564 34 499 8T349 -18Q205 -18 128 61T52 275Q52 403 102 506T246 668T461 728Z" horiz-adv-x="666" unicode="C"/>
			<glyph d="M150 708H378Q526 708 614 639T703 433Q703 303 652 205T505 53T278 0H38ZM258 605L179 104H281Q424 104 498 190T573 424Q573 517 520 561T363 605Z" horiz-adv-x="725" unicode="D"/>
			<glyph d="M150 708H586L570 607H259L229 412H495L479 315H213L180 103H507L491 0H38Z" horiz-adv-x="555" unicode="E"/>
			<glyph d="M150 708H586L569 605H259L227 402H498L483 300H212L163 0H38Z" horiz-adv-x="530" unicode="F"/>
			<glyph d="M462 726Q531 726 593 701T696 634L621 561Q586 589 547 604T457 619Q368 619 305 574T211 451T180 278Q180 86 369 86Q411 86 445 94T517 116L542 278H399L414 375H673L622 48Q495 -18 354 -18Q205 -18 128 59T51 273Q51 401 101 504T245 666T462 726Z" horiz-adv-x="727" unicode="G"/>
			<glyph d="M150 708H275L229 414H552L599 708H725L613 0H487L536 313H213L163 0H38Z" horiz-adv-x="733" unicode="H"/>
			<glyph d="M119 708H405L391 616H310L227 95H308L293 0H7L22 95H104L187 616H105Z" horiz-adv-x="381" unicode="I"/>
			<glyph d="M291 708H416L337 209Q321 109 263 45T101 -18Q63 -18 27 -8T-34 20L22 109Q57 89 98 89Q193 89 212 209Z" horiz-adv-x="416" unicode="J"/>
			<glyph d="M150 708H275L228 412L549 708H698L343 382L611 0H467L258 304L203 254L163 0H38Z" horiz-adv-x="644" unicode="K"/>
			<glyph d="M150 708H275L180 105H481L464 0H38Z" horiz-adv-x="509" unicode="L"/>
			<glyph d="M150 708H330L437 171H439L720 708H910L798 0H675L767 562H765L460 0H366L243 562H241L155 0H38Z" horiz-adv-x="918" unicode="M"/>
			<glyph d="M150 708L290 707L554 166H556L638 708H754L642 0H503L240 543H237L155 0H38Z" horiz-adv-x="762" unicode="N"/>
			<glyph d="M465 726Q562 726 631 690T736 587T772 431Q772 304 720 201T575 40T358 -18Q261 -18 192 18T87 121T52 278Q52 405 103 507T249 667T465 726ZM455 618Q369 618 307 574T213 454T181 285Q181 192 228 141T370 90Q456 90 518 134T612 255T644 423Q644 517 597 567T455 618Z" horiz-adv-x="794" unicode="O"/>
			<glyph d="M150 708H395Q494 708 560 659T626 514Q626 429 588 365T482 266T327 231H200L163 0H38ZM259 607L217 333H329Q406 333 452 381T498 503Q498 558 463 582T373 607Z" horiz-adv-x="614" unicode="P"/>
			<glyph d="M465 726Q562 726 631 690T736 587T772 431Q772 312 727 215T599 57T407 -16Q416 -61 473 -80T651 -100L602 -203Q448 -203 365 -151T278 -11Q169 10 110 86T52 278Q52 405 103 507T249 667T465 726ZM455 618Q369 618 307 574T213 454T181 285Q181 192 228 141T370 90Q456 90 517 134T611 254T643 423Q643 517 596 567T455 618Z" horiz-adv-x="794" unicode="Q"/>
			<glyph d="M150 708H386Q451 708 503 686T587 620T618 514Q618 417 571 354T437 264L565 0H428L317 242H203L163 0H38ZM259 607L217 338H327Q401 338 444 384T488 502Q488 555 454 581T367 607Z" horiz-adv-x="637" unicode="R"/>
			<glyph d="M360 725Q482 725 578 657L515 574Q475 599 435 611T352 624Q290 624 252 598T214 520Q214 483 244 461T339 421Q425 396 473 352T521 234Q521 156 483 99T379 12T229 -18Q161 -18 99 3T-6 63L61 144Q135 86 235 86Q305 86 348 120T391 216Q391 260 358 283T253 326Q174 348 131 393T89 506Q89 611 164 668T360 725Z" horiz-adv-x="562" unicode="S"/>
			<glyph d="M76 708H619L603 602H394L299 0H172L268 602H59Z" horiz-adv-x="552" unicode="T"/>
			<glyph d="M142 708H267L197 264Q192 234 192 213Q192 151 225 120T333 90Q421 90 466 134T526 265L596 708H721L649 255Q629 125 546 53T326 -18Q203 -18 134 39T65 200Q65 223 70 256Z" horiz-adv-x="722" unicode="U"/>
			<glyph d="M66 708H198L301 143H304L581 708H717L340 0H218Z" horiz-adv-x="641" unicode="V"/>
			<glyph d="M78 708H203L255 167H258L491 708H620L683 167H686L913 708H1040L728 0H605L534 547H532L291 0H165Z" horiz-adv-x="977" unicode="W"/>
			<glyph d="M94 708H235L342 455L534 708H678L405 369L587 0H444L318 282L105 0H-44L257 374Z" horiz-adv-x="627" unicode="X"/>
			<glyph d="M54 708H191L309 403H311L524 708H670L358 301L310 0H185L234 303Z" horiz-adv-x="583" unicode="Y"/>
			<glyph d="M114 708H605L589 609L159 105H518L501 0H-10L7 106L433 607H98Z" horiz-adv-x="581" unicode="Z"/>
			<glyph d="M160 818H391L376 725H260L142 -26H258L244 -118H13Z" horiz-adv-x="376" unicode="["/>
			<glyph d="M67 791H171L522 -87H417Z" horiz-adv-x="560" unicode="\"/>
			<glyph d="M161 818H392L245 -118H14L29 -26H145L263 725H147Z" horiz-adv-x="376" unicode="]"/>
			<glyph d="M258 708H351L511 516L452 470L305 631L158 470L99 516Z" unicode="^"/>
			<glyph d="M-16 -99H485L469 -195H-31Z" horiz-adv-x="585" unicode="_"/>
			<glyph d="M162 769L329 624L277 568L94 692Z" horiz-adv-x="288" unicode="`"/>
			<glyph d="M343 532Q411 532 463 517T570 467L514 118Q506 63 504 0H393Q392 47 398 75H396Q362 27 320 6T219 -14Q132 -14 86 43T40 194Q40 288 77 365T184 487T343 532ZM345 436Q288 436 247 404T185 320T165 205Q165 145 189 113T257 81Q317 81 362 143T422 297L441 416Q418 428 395 432T345 436Z" unicode="a"/>
			<glyph d="M148 708H268L220 442H223Q250 485 295 508T399 532Q491 532 536 475T582 326Q582 288 577 259Q565 182 527 120T429 22T289 -14Q164 -14 43 44ZM369 437Q328 437 290 407T225 324T188 205L172 102Q202 91 228 86T289 81Q357 81 399 129T454 261Q459 296 459 319Q459 377 436 407T369 437Z" horiz-adv-x="623" unicode="b"/>
			<glyph d="M344 532Q441 532 510 477L456 396Q407 433 335 433Q280 433 241 403T183 323T164 212Q164 154 192 120T277 87Q339 87 409 126L448 42Q365 -14 258 -14Q143 -14 92 49T42 204Q42 296 79 371T185 489T344 532Z" horiz-adv-x="510" unicode="c"/>
			<glyph d="M497 708H617L524 118Q516 63 514 0H403Q402 47 408 75H406Q371 27 328 6T227 -14Q136 -14 88 42T41 194Q41 285 75 362T172 486T320 532Q368 532 402 521T462 489ZM327 436Q276 436 239 403T184 317T166 205Q166 145 192 113T266 81Q326 81 371 142T432 297L447 395Q403 436 327 436Z" horiz-adv-x="623" unicode="d"/>
			<glyph d="M339 532Q438 532 481 490T524 389Q524 290 425 247T161 199Q166 85 282 85Q322 85 353 94T420 125L463 47Q412 14 367 0T261 -14Q157 -14 99 43T42 201Q42 294 78 369T181 488T339 532ZM331 442Q266 442 225 400T169 289Q251 294 300 303T376 333T402 388Q402 414 386 428T331 442Z" horiz-adv-x="546" unicode="e"/>
			<glyph d="M355 722Q420 722 469 703L433 618Q403 627 375 627Q285 627 273 539L269 515H390L375 424H256L187 -9Q175 -83 150 -130T85 -208T-22 -258L-53 -166Q3 -147 29 -112T66 -10L135 424H51L64 501L149 515L153 544Q167 630 215 676T355 722Z" horiz-adv-x="351" unicode="f"/>
			<glyph d="M343 532Q411 532 463 517T570 467L497 -9Q479 -130 409 -194T219 -258Q163 -258 112 -240T23 -195L75 -112Q143 -158 216 -158Q289 -158 328 -124T382 -11L398 77H396Q362 30 320 11T219 -8Q132 -8 86 47T41 197Q41 291 78 367T184 488T343 532ZM346 436Q289 436 248 404T186 320T166 206Q166 148 191 117T258 87Q318 87 363 146T423 297L442 416Q418 428 396 432T346 436Z" horiz-adv-x="605" unicode="g"/>
			<glyph d="M148 708H268L221 438H223Q245 475 298 503T404 532Q482 532 522 487T563 376Q563 359 560 341L505 0H385L436 318Q439 338 439 356Q439 433 370 433Q323 433 283 393T217 290T180 158L155 0H36Z" horiz-adv-x="618" unicode="h"/>
			<glyph d="M118 518H238L156 0H36ZM214 752Q248 752 263 737T279 697Q279 661 258 637T195 614Q161 614 145 629T130 669Q130 705 150 728T214 752Z" horiz-adv-x="274" unicode="i"/>
			<glyph d="M118 518H238L155 -9Q143 -83 119 -130T53 -208T-54 -258L-85 -166Q-30 -148 -3 -113T34 -10ZM214 752Q248 752 263 737T279 697Q279 661 258 637T195 614Q161 614 145 629T130 669Q130 705 150 728T214 752Z" horiz-adv-x="275" unicode="j"/>
			<glyph d="M148 708H268L208 328L433 518H585L329 306L519 0H382L242 233L186 187L156 0H36Z" horiz-adv-x="559" unicode="k"/>
			<glyph d="M148 708H268L156 0H36Z" horiz-adv-x="274" unicode="l"/>
			<glyph d="M398 532Q459 532 495 501T541 420H543Q576 474 628 503T737 532Q812 532 851 487T890 376Q890 359 887 341L832 0H712L763 318Q764 326 765 335T766 357Q766 433 703 433Q660 433 622 395T558 296T520 168L494 0H374L424 318Q428 346 428 357Q428 433 364 433Q320 433 281 393T217 290T180 158L155 0H35L98 401Q105 446 109 518H221Q223 476 213 428H215Q242 472 293 502T398 532Z" horiz-adv-x="945" unicode="m"/>
			<glyph d="M404 532Q482 532 522 487T563 376Q563 359 560 341L505 0H385L436 318Q437 325 438 334T439 356Q439 433 370 433Q323 433 283 393T217 290T180 158L155 0H35L98 401Q105 446 109 518H221Q223 476 213 428H215Q242 472 294 502T404 532Z" horiz-adv-x="618" unicode="n"/>
			<glyph d="M345 532Q457 532 517 474T578 318Q578 226 539 150T431 30T272 -14Q163 -14 102 46T42 207Q42 298 80 372T186 489T345 532ZM338 437Q255 437 210 371T166 207Q166 149 194 115T282 81Q337 81 376 113T436 197T456 313Q456 371 427 404T338 437Z" horiz-adv-x="620" unicode="o"/>
			<glyph d="M400 532Q492 532 537 476T582 327Q582 234 547 156T448 32T303 -14Q218 -14 159 23L117 -244H-3L99 401Q107 454 109 518H223Q221 457 213 429H215Q244 476 290 504T400 532ZM363 437Q324 437 287 407T225 328T191 223L173 111Q203 94 229 87T289 81Q344 81 382 114T439 200T458 317Q458 376 433 406T363 437Z" horiz-adv-x="623" unicode="p"/>
			<glyph d="M343 532Q411 532 463 517T570 467L458 -244H338L395 67H393Q359 24 318 5T219 -14Q132 -14 86 43T40 194Q40 288 77 365T183 487T343 532ZM345 436Q288 436 247 404T185 320T165 205Q165 145 189 113T257 81Q317 81 362 143T422 297L441 416Q418 428 395 432T345 436Z" horiz-adv-x="616" unicode="q"/>
			<glyph d="M385 532Q406 532 419 527L398 417Q382 421 361 421Q287 421 240 334T175 120L155 0H35L98 401Q105 446 109 518H221Q221 480 209 415H211Q243 481 283 506T385 532Z" horiz-adv-x="382" unicode="r"/>
			<glyph d="M274 532Q378 532 449 478L393 403Q335 440 273 440Q179 440 179 378Q179 354 200 339T278 309Q405 270 405 168Q405 79 342 32T177 -14Q67 -14 -9 44L47 120Q108 79 181 79Q280 79 280 151Q280 177 259 193T186 227Q57 266 57 365Q57 445 117 488T274 532Z" horiz-adv-x="459" unicode="s"/>
			<glyph d="M286 680L260 515H386L372 424H245L205 169Q201 144 201 131Q201 85 258 85Q283 85 304 91L310 -1Q271 -14 219 -14Q152 -14 115 18T79 111Q79 131 84 161L125 424H41L54 501L140 515L158 637Z" horiz-adv-x="375" unicode="t"/>
			<glyph d="M112 518H232L182 200Q178 176 178 157Q178 124 195 104T250 85Q297 85 334 116T396 195T428 296L463 518H583L520 118Q511 65 509 0H398Q395 36 405 78H403Q375 37 326 11T225 -14Q143 -14 99 32T56 146Q56 165 60 186Z" horiz-adv-x="618" unicode="u"/>
			<glyph d="M41 518H167L231 121H234L419 518H548L280 0H148Z" horiz-adv-x="505" unicode="v"/>
			<glyph d="M51 518H175L199 132H201L373 518H501L553 132H555L702 518H826L602 0H475L421 388H419L243 0H110Z" horiz-adv-x="795" unicode="w"/>
			<glyph d="M66 518H199L288 345L431 518H563L349 266L504 0H364L265 194L103 0H-39L201 277Z" horiz-adv-x="551" unicode="x"/>
			<glyph d="M41 518H167L230 125H232L406 518H535L264 -32Q225 -110 189 -153T108 -219T-7 -258L-31 -164Q14 -153 44 -139T99 -97T148 -20L156 -4Z" horiz-adv-x="493" unicode="y"/>
			<glyph d="M83 518H458L444 429L151 94H402L387 0H-10L4 95L294 428H68Z" horiz-adv-x="455" unicode="z"/>
			<glyph d="M412 818L397 723Q315 723 300 629L283 514Q274 457 261 425T223 376T155 351V349Q200 335 218 313T237 247Q237 228 230 182L213 72Q210 50 210 42Q210 10 227 -7T279 -24L265 -118Q187 -118 141 -80T95 33Q95 54 98 76L119 214Q123 237 123 249Q123 276 108 287T57 300L72 400Q118 402 134 414T157 459L188 651Q215 818 412 818Z" horiz-adv-x="376" unicode="{"/>
			<glyph d="M127 808H235V-100H127Z" horiz-adv-x="362" unicode="|"/>
			<glyph d="M139 818Q218 818 264 780T310 667Q310 644 306 624L286 486Q282 463 282 451Q282 424 296 413T347 400L332 300Q286 298 269 285T247 241L216 49Q189 -118 -7 -118L7 -23Q89 -23 104 71L122 186Q130 242 143 274T180 323T249 349V351Q204 365 186 387T168 453Q168 479 174 518L191 628Q194 651 194 658Q194 690 176 707T125 724Z" horiz-adv-x="376" unicode="}"/>
			<glyph d="M490 356L542 317Q476 218 388 218Q359 218 338 226T291 251Q269 264 256 270T228 276Q206 276 184 262T129 216L77 255Q143 354 231 354Q260 354 281 345T328 321Q348 309 361 303T391 297Q414 297 436 310T490 356Z" unicode="~"/>
			<glyph d="" horiz-adv-x="262" unicode=" "/>
			<glyph d="M122 296H223L204 106L157 -185H36L83 106ZM209 532Q272 532 272 477Q272 436 251 411T188 387Q125 387 125 443Q125 483 145 507T209 532Z" horiz-adv-x="329" unicode="¡"/>
			<glyph d="M370 708H467L454 623Q520 611 573 569L516 494Q469 528 398 528Q341 528 300 498T238 417T218 304Q218 247 246 214T332 181Q398 181 468 218L505 135Q443 96 368 85L355 0H258L271 84Q178 96 137 156T97 300Q97 385 128 455T219 569T357 624Z" unicode="¢"/>
			<glyph d="M402 725Q533 725 607 635L524 571Q502 597 472 610T397 623Q342 623 309 587T276 496Q276 455 289 403H460L445 314H309Q310 307 310 292Q310 225 281 181T197 109V107H503L485 0H24L39 96Q107 133 146 181T186 299Q186 309 185 314H73L88 403H166Q152 459 152 498Q152 565 184 616T273 696T402 725Z" unicode="£"/>
			<glyph d="M150 532L220 435Q260 451 305 451Q350 451 390 435L460 532L532 479L454 388Q491 342 491 275Q491 209 453 160L532 68L460 15L389 113Q352 96 305 96Q259 96 221 112L150 15L79 68L157 160Q119 208 119 275Q119 343 156 388L79 479ZM305 379Q212 379 212 275Q212 224 235 196T305 168Q352 168 375 196T399 275Q399 325 375 352T305 379Z" unicode="¤"/>
			<glyph d="M84 708H215L322 402H324L523 708H659L413 369H521L508 288H362L354 241H501L488 160H342L316 0H197L223 160H81L94 241H236L244 288H101L114 369H220Z" horiz-adv-x="600" unicode="¥"/>
			<glyph d="M127 808H235V427H127ZM127 281H235V-100H127Z" horiz-adv-x="362" unicode="¦"/>
			<glyph d="M385 726Q493 726 561 669L504 599Q452 635 385 635Q349 635 324 619T300 577Q300 559 318 546T389 515Q459 492 492 460T525 383Q525 293 425 253Q488 214 488 145Q488 69 425 27T266 -15Q152 -15 74 45L131 117Q160 97 190 87T259 78Q308 78 335 95T362 139Q362 156 354 166T326 186T265 209Q198 230 164 260T131 337Q131 385 161 418T241 470Q179 509 179 572Q179 619 207 654T282 707T385 726ZM331 434Q292 418 271 398T250 351Q250 329 267 315T332 288Q370 307 386 328T403 377Q403 396 387 409T331 434Z" unicode="§"/>
			<glyph d="M168 724Q224 724 224 674Q224 638 206 616T150 594Q92 594 92 645Q92 680 111 702T168 724ZM369 724Q425 724 425 674Q425 638 407 616T351 594Q293 594 293 645Q293 680 312 702T369 724Z" horiz-adv-x="391" unicode="¨"/>
			<glyph d="M467 726Q586 726 672 678T804 545T850 354Q850 247 804 162T672 30T467 -18Q347 -18 260 30T128 162T83 354Q83 461 128 545T260 678T467 726ZM466 647Q319 647 245 566T172 354Q172 222 245 141T466 61Q613 61 686 141T760 354Q760 486 686 566T466 647ZM478 567Q555 567 616 525L580 460Q531 491 479 491Q421 491 393 455T365 358Q365 297 393 260T477 223Q526 223 581 254L615 190Q585 169 548 157T471 146Q362 146 315 210T269 358Q269 454 324 510T478 567Z" horiz-adv-x="932" unicode="©"/>
			<glyph d="M348 725Q413 725 463 711T565 663L512 329Q504 276 502 216H396Q395 261 401 288H399Q366 242 326 222T230 203Q146 203 102 257T58 402Q58 492 94 565T196 682T348 725ZM350 633Q296 633 256 603T197 522T178 412Q178 355 201 324T266 294Q323 294 366 353T424 500L442 614Q420 626 398 629T350 633ZM49 100H485L468 4H32Z" horiz-adv-x="579" unicode="ª"/>
			<glyph d="M256 532L303 484L174 341L257 198L199 157L80 320L87 367ZM438 532L485 484L356 341L439 198L381 157L262 320L269 367Z" horiz-adv-x="520" unicode="«"/>
			<glyph d="M118 391H518L481 161H370L392 295H103Z" horiz-adv-x="596" unicode="¬"/>
			<glyph d="M51 341H284L269 245H36Z" horiz-adv-x="311" unicode="­"/>
			<glyph d="M225 722Q284 722 318 688T352 600Q352 547 318 512T225 478Q166 478 132 512T98 600Q98 654 132 688T225 722ZM225 692Q178 692 155 667T132 600Q132 558 155 533T225 508Q271 508 294 533T317 600Q317 642 294 667T225 692ZM175 668H226Q251 668 265 657T280 624Q280 596 255 586L286 537H248L222 580H209V537H175ZM209 642V604H223Q248 604 248 624Q248 642 223 642Z" horiz-adv-x="342" unicode="®"/>
			<glyph d="M98 687H394L382 606H85Z" horiz-adv-x="357" unicode="¯"/>
			<glyph d="M238 726Q309 726 348 690T388 588Q388 522 348 485T239 448Q168 448 128 485T88 588Q88 655 128 690T238 726ZM238 658Q174 658 174 588Q174 517 238 517Q301 517 301 588Q301 658 238 658Z" horiz-adv-x="370" unicode="°"/>
			<glyph d="M304 577H408L384 427H531L516 331H369L344 177H240L265 331H116L131 427H280ZM78 99H478L463 3H63Z" unicode="±"/>
			<glyph d="M335 721Q421 721 467 679T513 575Q513 518 482 472T401 388T249 284L482 286L467 191H74L87 281Q111 298 130 312T166 337Q251 397 294 430T366 498T394 566Q394 595 375 611T320 627Q284 627 253 612T188 568L122 634Q168 678 218 699T335 721Z" horiz-adv-x="540" unicode="²"/>
			<glyph d="M338 722Q422 722 467 686T513 594Q513 583 512 577Q499 481 400 461L396 460Q438 454 465 429T493 359Q493 308 465 266T382 201T253 177Q186 177 140 197T60 257L128 320Q156 294 185 283T258 272Q309 272 343 295T377 363Q377 388 359 400T303 412H210L223 502H299Q345 502 371 522T397 582Q397 606 378 617T322 628Q256 628 187 582L135 652Q182 688 232 705T338 722Z" horiz-adv-x="540" unicode="³"/>
			<glyph d="M276 769L323 679L124 568L86 634Z" horiz-adv-x="283" unicode="´"/>
			<glyph d="M113 518H234L187 220Q183 190 183 178Q183 84 268 84Q326 84 367 128T420 241L464 518H584L521 118Q514 72 510 0H395Q395 44 397 61L395 60Q365 26 326 6T244 -14Q177 -14 152 33H150L125 -133Q114 -197 95 -244H-17Q0 -190 11 -125Z" horiz-adv-x="619" unicode="µ"/>
			<glyph d="M323 708H452L319 -130H202L272 312H262Q169 312 116 356T63 485Q63 554 96 604T188 681T323 708ZM534 708H651L518 -130H401ZM306 612Q243 612 208 578T173 486Q173 408 268 408H287L320 612Z" horiz-adv-x="658" unicode="¶"/>
			<glyph d="M163 420Q226 420 226 364Q226 324 205 299T142 275Q79 275 79 330Q79 371 99 395T163 420Z" horiz-adv-x="276" unicode="·"/>
			<glyph d="M72 0H147L120 -55Q129 -54 143 -54Q174 -54 194 -73T214 -127Q214 -183 173 -215T71 -248Q40 -248 10 -240T-40 -219L-9 -160Q29 -180 70 -180Q96 -180 112 -168T128 -134Q128 -109 96 -109Q84 -109 67 -114H14Z" horiz-adv-x="306" unicode="¸"/>
			<glyph d="M327 708H431L364 286H471L456 191H91L106 285H249L299 592L160 535L129 617Z" horiz-adv-x="540" unicode="¹"/>
			<glyph d="M386 725Q493 725 551 670T609 520Q609 432 572 359T468 245T316 203Q212 203 154 260T96 414Q96 501 132 572T234 684T386 725ZM379 634Q300 634 257 571T215 414Q215 359 242 326T326 294Q378 294 416 324T473 405T492 516Q492 571 465 602T379 634ZM72 100H508L491 4H55Z" horiz-adv-x="641" unicode="º"/>
			<glyph d="M166 532L284 367L277 320L108 157L62 205L192 348L106 491ZM348 532L466 367L459 320L290 157L244 205L374 348L288 491Z" horiz-adv-x="520" unicode="»"/>
			<glyph d="M275 708H379L312 286H419L404 191H39L54 285H197L247 592L108 535L77 617ZM844 709H959L432 0H317ZM944 517H1068L855 199H989L1008 323H1119L1099 199H1170L1155 104H1084L1068 0H958L974 104H709L721 189Z" horiz-adv-x="1200" unicode="¼"/>
			<glyph d="M269 708H373L306 286H413L398 191H33L48 285H191L241 592L102 535L71 617ZM826 709H941L414 0H299ZM1012 530Q1098 530 1144 488T1190 384Q1190 327 1159 281T1078 197T926 93L1159 95L1144 0H751L764 90Q788 107 807 121T843 146Q928 206 971 239T1043 307T1071 375Q1071 404 1052 420T997 436Q961 436 930 421T865 377L799 443Q845 487 895 508T1012 530Z" horiz-adv-x="1200" unicode="½"/>
			<glyph d="M292 722Q376 722 421 686T467 594Q467 583 466 577Q453 481 354 461L350 460Q392 454 419 429T447 359Q447 308 419 266T336 201T207 177Q140 177 94 197T14 257L82 320Q110 294 139 283T212 272Q263 272 297 295T331 363Q331 388 313 400T257 412H164L177 502H253Q299 502 325 522T351 582Q351 606 332 617T276 628Q210 628 141 582L89 652Q136 688 186 705T292 722ZM842 709H957L430 0H315ZM947 517H1071L858 199H992L1011 323H1122L1102 199H1173L1158 104H1087L1071 0H961L977 104H712L724 189Z" horiz-adv-x="1200" unicode="¾"/>
			<glyph d="M245 296H360L355 264Q348 216 317 185T232 120Q195 96 174 79T138 38T124 -18Q124 -57 148 -78T216 -100Q266 -100 305 -81T386 -21L454 -90Q399 -147 338 -174T199 -202Q105 -202 49 -154T-6 -26Q-6 26 16 65T69 129T148 185Q195 215 217 235T243 282ZM328 532Q391 532 391 477Q391 436 370 411T307 387Q244 387 244 443Q244 483 264 507T328 532Z" horiz-adv-x="513" unicode="¿"/>
			<glyph d="M336 708H465L618 0H485L457 155H173L92 0H-43ZM382 582L220 251H440ZM369 946L552 825L505 768L308 867Z" horiz-adv-x="658" unicode="À"/>
			<glyph d="M336 708H465L618 0H485L457 155H173L92 0H-43ZM382 582L220 251H440ZM499 946L540 856L334 763L305 829Z" horiz-adv-x="658" unicode="Á"/>
			<glyph d="M336 708H465L618 0H485L457 155H173L92 0H-43ZM382 582L220 251H440ZM390 919H482L592 813L543 763L429 846L288 762L251 817Z" horiz-adv-x="658" unicode="Â"/>
			<glyph d="M336 708H465L618 0H485L457 155H173L92 0H-43ZM382 582L220 251H440ZM375 904Q394 904 407 897T438 878Q451 868 460 863T479 859Q496 859 511 870T542 903L598 877Q572 829 541 805T469 781Q450 781 436 787T406 806Q393 815 383 820T363 825Q347 825 332 814T301 782L245 807Q271 855 303 879T375 904Z" horiz-adv-x="658" unicode="Ã"/>
			<glyph d="M336 708H465L618 0H485L457 155H173L92 0H-43ZM382 582L220 251H440ZM332 916Q388 916 388 866Q388 830 370 808T314 786Q256 786 256 837Q256 872 275 894T332 916ZM533 916Q589 916 589 866Q589 830 571 808T515 786Q457 786 457 837Q457 872 476 894T533 916Z" horiz-adv-x="658" unicode="Ä"/>
			<glyph d="M459 869Q512 869 541 843T571 776Q571 728 546 695T477 650L618 0H485L457 155H173L92 0H-43L331 699Q323 718 323 739Q323 799 361 834T459 869ZM455 806Q431 806 416 790T402 744Q402 727 412 717T439 708Q463 708 477 724T491 771Q491 787 481 796T455 806ZM382 582L220 251H440Z" horiz-adv-x="658" unicode="Å"/>
			<glyph d="M332 708H867L851 607H491L524 412H797L781 315H541L577 103H832L816 0H473L449 155H169L88 0H-43ZM381 585L217 251H434Z" horiz-adv-x="873" unicode="Æ"/>
			<glyph d="M461 728Q529 728 592 703T696 636L617 561Q550 620 452 620Q368 620 307 575T215 454T184 285Q184 196 229 144T368 92Q462 92 554 162L618 80Q566 35 503 9T358 -18L340 -55Q349 -54 363 -54Q394 -54 414 -73T434 -127Q434 -183 393 -215T291 -248Q260 -248 230 -240T180 -219L211 -160Q249 -180 290 -180Q316 -180 332 -168T348 -134Q348 -109 316 -109Q304 -109 287 -114H234L285 -13Q171 4 111 80T52 275Q52 403 102 506T246 668T461 728Z" horiz-adv-x="666" unicode="Ç"/>
			<glyph d="M150 708H586L570 607H259L229 412H495L479 315H213L180 103H507L491 0H38ZM329 946L512 825L465 768L268 867Z" horiz-adv-x="555" unicode="È"/>
			<glyph d="M150 708H586L570 607H259L229 412H495L479 315H213L180 103H507L491 0H38ZM459 946L500 856L294 763L265 829Z" horiz-adv-x="555" unicode="É"/>
			<glyph d="M150 708H586L570 607H259L229 412H495L479 315H213L180 103H507L491 0H38ZM351 919H443L553 813L504 763L390 846L249 762L212 817Z" horiz-adv-x="555" unicode="Ê"/>
			<glyph d="M150 708H586L570 607H259L229 412H495L479 315H213L180 103H507L491 0H38ZM292 916Q348 916 348 866Q348 830 330 808T274 786Q216 786 216 837Q216 872 235 894T292 916ZM493 916Q549 916 549 866Q549 830 531 808T475 786Q417 786 417 837Q417 872 436 894T493 916Z" horiz-adv-x="555" unicode="Ë"/>
			<glyph d="M119 708H405L391 616H310L227 95H308L293 0H7L22 95H104L187 616H105ZM231 946L414 825L367 768L170 867Z" horiz-adv-x="381" unicode="Ì"/>
			<glyph d="M119 708H405L391 616H310L227 95H308L293 0H7L22 95H104L187 616H105ZM361 946L402 856L196 763L167 829Z" horiz-adv-x="381" unicode="Í"/>
			<glyph d="M119 708H405L391 616H310L227 95H308L293 0H7L22 95H104L187 616H105ZM253 919H345L455 813L406 763L292 846L151 762L114 817Z" horiz-adv-x="381" unicode="Î"/>
			<glyph d="M119 708H405L391 616H310L227 95H308L293 0H7L22 95H104L187 616H105ZM194 916Q250 916 250 866Q250 830 232 808T176 786Q118 786 118 837Q118 872 137 894T194 916ZM395 916Q451 916 451 866Q451 830 433 808T377 786Q319 786 319 837Q319 872 338 894T395 916Z" horiz-adv-x="381" unicode="Ï"/>
			<glyph d="M150 708H378Q526 708 614 639T703 433Q703 303 652 205T505 53T278 0H38L88 314H12L25 394H100ZM258 605L225 394H381L368 314H212L179 104H281Q424 104 498 190T573 424Q573 517 520 561T363 605Z" horiz-adv-x="724" unicode="Ð"/>
			<glyph d="M150 708L290 707L554 166H556L638 708H754L642 0H503L240 543H237L155 0H38ZM427 904Q446 904 459 897T490 878Q503 868 512 863T531 859Q548 859 563 870T594 903L650 877Q624 829 593 805T521 781Q502 781 488 787T458 806Q445 815 435 820T415 825Q399 825 384 814T353 782L297 807Q323 855 355 879T427 904Z" horiz-adv-x="762" unicode="Ñ"/>
			<glyph d="M465 726Q562 726 631 690T736 587T772 431Q772 304 720 201T575 40T358 -18Q261 -18 192 18T87 121T52 278Q52 405 103 507T249 667T465 726ZM455 618Q369 618 307 574T213 454T181 285Q181 192 228 141T370 90Q456 90 518 134T612 255T644 423Q644 517 597 567T455 618ZM441 946L624 825L577 768L380 867Z" horiz-adv-x="794" unicode="Ò"/>
			<glyph d="M465 726Q562 726 631 690T736 587T772 431Q772 304 720 201T575 40T358 -18Q261 -18 192 18T87 121T52 278Q52 405 103 507T249 667T465 726ZM455 618Q369 618 307 574T213 454T181 285Q181 192 228 141T370 90Q456 90 518 134T612 255T644 423Q644 517 597 567T455 618ZM571 946L612 856L406 763L377 829Z" horiz-adv-x="794" unicode="Ó"/>
			<glyph d="M465 726Q562 726 631 690T736 587T772 431Q772 304 720 201T575 40T358 -18Q261 -18 192 18T87 121T52 278Q52 405 103 507T249 667T465 726ZM455 618Q369 618 307 574T213 454T181 285Q181 192 228 141T370 90Q456 90 518 134T612 255T644 423Q644 517 597 567T455 618ZM463 919H555L665 813L616 763L502 846L361 762L324 817Z" horiz-adv-x="794" unicode="Ô"/>
			<glyph d="M465 726Q562 726 631 690T736 587T772 431Q772 304 720 201T575 40T358 -18Q261 -18 192 18T87 121T52 278Q52 405 103 507T249 667T465 726ZM455 618Q369 618 307 574T213 454T181 285Q181 192 228 141T370 90Q456 90 518 134T612 255T644 423Q644 517 597 567T455 618ZM447 904Q466 904 479 897T510 878Q523 868 532 863T551 859Q568 859 583 870T614 903L670 877Q644 829 613 805T541 781Q522 781 508 787T478 806Q465 815 455 820T435 825Q419 825 404 814T373 782L317 807Q343 855 375 879T447 904Z" horiz-adv-x="794" unicode="Õ"/>
			<glyph d="M465 726Q562 726 631 690T736 587T772 431Q772 304 720 201T575 40T358 -18Q261 -18 192 18T87 121T52 278Q52 405 103 507T249 667T465 726ZM455 618Q369 618 307 574T213 454T181 285Q181 192 228 141T370 90Q456 90 518 134T612 255T644 423Q644 517 597 567T455 618ZM404 916Q460 916 460 866Q460 830 442 808T386 786Q328 786 328 837Q328 872 347 894T404 916ZM605 916Q661 916 661 866Q661 830 643 808T587 786Q529 786 529 837Q529 872 548 894T605 916Z" horiz-adv-x="794" unicode="Ö"/>
			<glyph d="M198 463L305 356L413 463L481 396L373 288L481 180L414 112L306 221L198 113L130 181L238 288L131 395Z" unicode="×"/>
			<glyph d="M540 801L642 780L608 701Q688 668 730 598T772 431Q772 304 720 201T575 40T358 -18Q343 -18 313 -16L282 -97L180 -76L217 7Q137 39 94 109T52 278Q52 405 103 507T249 667T465 726Q480 726 510 724ZM454 620Q368 620 306 575T212 455T180 285Q180 150 265 109L474 619Q468 620 454 620ZM559 600L350 89Q357 88 370 88Q455 88 517 133T611 254T643 423Q643 557 559 600Z" horiz-adv-x="794" unicode="Ø"/>
			<glyph d="M142 708H267L197 264Q192 234 192 213Q192 151 225 120T333 90Q421 90 466 134T526 265L596 708H721L649 255Q629 125 546 53T326 -18Q203 -18 134 39T65 200Q65 223 70 256ZM400 946L583 825L536 768L339 867Z" horiz-adv-x="722" unicode="Ù"/>
			<glyph d="M142 708H267L197 264Q192 234 192 213Q192 151 225 120T333 90Q421 90 466 134T526 265L596 708H721L649 255Q629 125 546 53T326 -18Q203 -18 134 39T65 200Q65 223 70 256ZM530 946L571 856L365 763L336 829Z" horiz-adv-x="722" unicode="Ú"/>
			<glyph d="M142 708H267L197 264Q192 234 192 213Q192 151 225 120T333 90Q421 90 466 134T526 265L596 708H721L649 255Q629 125 546 53T326 -18Q203 -18 134 39T65 200Q65 223 70 256ZM422 919H514L624 813L575 763L461 846L320 762L283 817Z" horiz-adv-x="722" unicode="Û"/>
			<glyph d="M142 708H267L197 264Q192 234 192 213Q192 151 225 120T333 90Q421 90 466 134T526 265L596 708H721L649 255Q629 125 546 53T326 -18Q203 -18 134 39T65 200Q65 223 70 256ZM363 916Q419 916 419 866Q419 830 401 808T345 786Q287 786 287 837Q287 872 306 894T363 916ZM564 916Q620 916 620 866Q620 830 602 808T546 786Q488 786 488 837Q488 872 507 894T564 916Z" horiz-adv-x="722" unicode="Ü"/>
			<glyph d="M54 708H191L309 403H311L524 708H670L358 301L310 0H185L234 303ZM461 946L502 856L296 763L267 829Z" horiz-adv-x="583" unicode="Ý"/>
			<glyph d="M150 708H275L258 599H377Q481 599 545 549T610 404Q610 324 571 262T466 167T314 133H184L163 0H38ZM242 499L200 234H313Q386 234 433 279T481 396Q481 449 446 474T356 499Z" horiz-adv-x="620" unicode="Þ"/>
			<glyph d="M377 722Q497 722 582 627L467 420Q524 399 564 355T605 236Q605 164 572 107T483 18T359 -14Q292 -14 234 17L276 97Q317 81 352 81Q412 81 447 126T482 233Q482 284 448 311T346 351L357 424L452 604Q438 616 416 623T369 631Q288 631 274 541L187 -9Q175 -83 150 -130T85 -208T-22 -258L-53 -166Q2 -148 28 -113T66 -10L135 424H52L65 501L150 515L154 544Q168 630 224 676T377 722Z" horiz-adv-x="642" unicode="ß"/>
			<glyph d="M343 532Q411 532 463 517T570 467L514 118Q506 63 504 0H393Q392 47 398 75H396Q362 27 320 6T219 -14Q132 -14 86 43T40 194Q40 288 77 365T184 487T343 532ZM345 436Q288 436 247 404T185 320T165 205Q165 145 189 113T257 81Q317 81 362 143T422 297L441 416Q418 428 395 432T345 436ZM326 769L493 624L441 568L258 692Z" unicode="à"/>
			<glyph d="M343 532Q411 532 463 517T570 467L514 118Q506 63 504 0H393Q392 47 398 75H396Q362 27 320 6T219 -14Q132 -14 86 43T40 194Q40 288 77 365T184 487T343 532ZM345 436Q288 436 247 404T185 320T165 205Q165 145 189 113T257 81Q317 81 362 143T422 297L441 416Q418 428 395 432T345 436ZM443 769L490 679L291 568L253 634Z" unicode="á"/>
			<glyph d="M343 532Q411 532 463 517T570 467L514 118Q506 63 504 0H393Q392 47 398 75H396Q362 27 320 6T219 -14Q132 -14 86 43T40 194Q40 288 77 365T184 487T343 532ZM345 436Q288 436 247 404T185 320T165 205Q165 145 189 113T257 81Q317 81 362 143T422 297L441 416Q418 428 395 432T345 436ZM343 744H436L542 616L494 568L382 669L237 570L193 619Z" unicode="â"/>
			<glyph d="M343 532Q411 532 463 517T570 467L514 118Q506 63 504 0H393Q392 47 398 75H396Q362 27 320 6T219 -14Q132 -14 86 43T40 194Q40 288 77 365T184 487T343 532ZM345 436Q288 436 247 404T185 320T165 205Q165 145 189 113T257 81Q317 81 362 143T422 297L441 416Q418 428 395 432T345 436ZM322 712Q341 712 354 705T385 686Q398 676 407 671T426 667Q443 667 458 678T489 711L545 685Q519 637 488 613T416 589Q397 589 383 595T353 614Q340 623 330 628T310 633Q294 633 279 622T248 590L192 615Q218 663 250 687T322 712Z" unicode="ã"/>
			<glyph d="M343 532Q411 532 463 517T570 467L514 118Q506 63 504 0H393Q392 47 398 75H396Q362 27 320 6T219 -14Q132 -14 86 43T40 194Q40 288 77 365T184 487T343 532ZM345 436Q288 436 247 404T185 320T165 205Q165 145 189 113T257 81Q317 81 362 143T422 297L441 416Q418 428 395 432T345 436ZM280 724Q336 724 336 674Q336 638 318 616T262 594Q204 594 204 645Q204 680 223 702T280 724ZM481 724Q537 724 537 674Q537 638 519 616T463 594Q405 594 405 645Q405 680 424 702T481 724Z" unicode="ä"/>
			<glyph d="M343 532Q411 532 463 517T570 467L514 118Q506 63 504 0H393Q392 47 398 75H396Q362 27 320 6T219 -14Q132 -14 86 43T40 194Q40 288 77 365T184 487T343 532ZM345 436Q288 436 247 404T185 320T165 205Q165 145 189 113T257 81Q317 81 362 143T422 297L441 416Q418 428 395 432T345 436ZM386 797Q439 797 468 771T498 704Q498 645 460 609T361 573Q309 573 279 599T250 667Q250 727 288 762T386 797ZM382 734Q358 734 343 718T329 672Q329 655 339 645T366 636Q390 636 404 652T418 699Q418 715 408 724T382 734Z" unicode="å"/>
			<glyph d="M307 532Q367 532 402 514T456 456Q526 532 636 532Q693 532 733 511T793 458T814 391Q814 289 719 251T460 210V206Q460 85 582 85Q618 85 645 94T710 125L753 47Q702 14 660 0T560 -14Q426 -14 389 91Q347 39 297 12T185 -14Q110 -14 65 22T21 127Q21 238 112 281T364 325L368 350Q370 359 370 373Q370 439 288 439Q212 439 135 398L106 479Q151 503 204 517T307 532ZM625 442Q565 442 526 403T470 297Q553 301 598 308T667 333T692 388Q692 412 675 427T625 442ZM352 244Q286 244 244 237T175 208T149 139Q149 110 166 95T215 80Q264 80 301 115T345 199Z" horiz-adv-x="836" unicode="æ"/>
			<glyph d="M344 532Q441 532 510 477L456 396Q407 433 335 433Q280 433 241 403T183 323T164 212Q164 154 192 120T277 87Q339 87 409 126L448 42Q375 -6 288 -13L267 -55Q276 -54 290 -54Q321 -54 341 -73T361 -127Q361 -183 320 -215T218 -248Q187 -248 157 -240T107 -219L138 -160Q176 -180 217 -180Q243 -180 259 -168T275 -134Q275 -109 243 -109Q231 -109 214 -114H161L213 -11Q122 1 82 61T42 204Q42 296 79 371T185 489T344 532Z" horiz-adv-x="510" unicode="ç"/>
			<glyph d="M339 532Q438 532 481 490T524 389Q524 290 425 247T161 199Q166 85 282 85Q322 85 353 94T420 125L463 47Q412 14 367 0T261 -14Q157 -14 99 43T42 201Q42 294 78 369T181 488T339 532ZM331 442Q266 442 225 400T169 289Q251 294 300 303T376 333T402 388Q402 414 386 428T331 442ZM305 769L472 624L420 568L237 692Z" horiz-adv-x="546" unicode="è"/>
			<glyph d="M339 532Q438 532 481 490T524 389Q524 290 425 247T161 199Q166 85 282 85Q322 85 353 94T420 125L463 47Q412 14 367 0T261 -14Q157 -14 99 43T42 201Q42 294 78 369T181 488T339 532ZM331 442Q266 442 225 400T169 289Q251 294 300 303T376 333T402 388Q402 414 386 428T331 442ZM421 769L468 679L269 568L231 634Z" horiz-adv-x="546" unicode="é"/>
			<glyph d="M339 532Q438 532 481 490T524 389Q524 290 425 247T161 199Q166 85 282 85Q322 85 353 94T420 125L463 47Q412 14 367 0T261 -14Q157 -14 99 43T42 201Q42 294 78 369T181 488T339 532ZM331 442Q266 442 225 400T169 289Q251 294 300 303T376 333T402 388Q402 414 386 428T331 442ZM322 744H415L521 616L473 568L361 669L216 570L172 619Z" horiz-adv-x="546" unicode="ê"/>
			<glyph d="M339 532Q438 532 481 490T524 389Q524 290 425 247T161 199Q166 85 282 85Q322 85 353 94T420 125L463 47Q412 14 367 0T261 -14Q157 -14 99 43T42 201Q42 294 78 369T181 488T339 532ZM331 442Q266 442 225 400T169 289Q251 294 300 303T376 333T402 388Q402 414 386 428T331 442ZM259 724Q315 724 315 674Q315 638 297 616T241 594Q183 594 183 645Q183 680 202 702T259 724ZM460 724Q516 724 516 674Q516 638 498 616T442 594Q384 594 384 645Q384 680 403 702T460 724Z" horiz-adv-x="546" unicode="ë"/>
			<glyph d="M118 518H238L156 0H36ZM157 769L324 624L272 568L89 692Z" horiz-adv-x="274" unicode="ì"/>
			<glyph d="M118 518H238L156 0H36ZM273 769L320 679L121 568L83 634Z" horiz-adv-x="274" unicode="í"/>
			<glyph d="M118 518H238L156 0H36ZM174 744H267L373 616L325 568L213 669L68 570L24 619Z" horiz-adv-x="274" unicode="î"/>
			<glyph d="M118 518H238L156 0H36ZM111 724Q167 724 167 674Q167 638 149 616T93 594Q35 594 35 645Q35 680 54 702T111 724ZM312 724Q368 724 368 674Q368 638 350 616T294 594Q236 594 236 645Q236 680 255 702T312 724Z" horiz-adv-x="274" unicode="ï"/>
			<glyph d="M292 726Q360 704 407 678L504 726L531 665L473 636Q531 594 563 530T596 385Q596 339 591 310Q567 166 486 76T277 -14Q167 -14 103 43T40 197Q40 277 76 344T175 452T319 492Q421 492 478 431Q466 523 375 588L266 534L239 595L303 627Q274 640 235 652ZM324 398Q276 398 239 370T184 297T165 202Q165 147 196 118T283 89Q357 89 403 151T465 322Q438 359 405 378T324 398Z" horiz-adv-x="633" unicode="ð"/>
			<glyph d="M404 532Q482 532 522 487T563 376Q563 359 560 341L505 0H385L436 318Q437 325 438 334T439 356Q439 433 370 433Q323 433 283 393T217 290T180 158L155 0H35L98 401Q105 446 109 518H221Q223 476 213 428H215Q242 472 294 502T404 532ZM345 712Q364 712 377 705T408 686Q421 676 430 671T449 667Q466 667 481 678T512 711L568 685Q542 637 511 613T439 589Q420 589 406 595T376 614Q363 623 353 628T333 633Q317 633 302 622T271 590L215 615Q241 663 273 687T345 712Z" horiz-adv-x="618" unicode="ñ"/>
			<glyph d="M345 532Q457 532 517 474T578 318Q578 226 539 150T431 30T272 -14Q163 -14 102 46T42 207Q42 298 80 372T186 489T345 532ZM338 437Q255 437 210 371T166 207Q166 149 194 115T282 81Q337 81 376 113T436 197T456 313Q456 371 427 404T338 437ZM330 769L497 624L445 568L262 692Z" horiz-adv-x="620" unicode="ò"/>
			<glyph d="M345 532Q457 532 517 474T578 318Q578 226 539 150T431 30T272 -14Q163 -14 102 46T42 207Q42 298 80 372T186 489T345 532ZM338 437Q255 437 210 371T166 207Q166 149 194 115T282 81Q337 81 376 113T436 197T456 313Q456 371 427 404T338 437ZM446 769L493 679L294 568L256 634Z" horiz-adv-x="620" unicode="ó"/>
			<glyph d="M345 532Q457 532 517 474T578 318Q578 226 539 150T431 30T272 -14Q163 -14 102 46T42 207Q42 298 80 372T186 489T345 532ZM338 437Q255 437 210 371T166 207Q166 149 194 115T282 81Q337 81 376 113T436 197T456 313Q456 371 427 404T338 437ZM347 744H440L546 616L498 568L386 669L241 570L197 619Z" horiz-adv-x="620" unicode="ô"/>
			<glyph d="M345 532Q457 532 517 474T578 318Q578 226 539 150T431 30T272 -14Q163 -14 102 46T42 207Q42 298 80 372T186 489T345 532ZM338 437Q255 437 210 371T166 207Q166 149 194 115T282 81Q337 81 376 113T436 197T456 313Q456 371 427 404T338 437ZM326 712Q345 712 358 705T389 686Q402 676 411 671T430 667Q447 667 462 678T493 711L549 685Q523 637 492 613T420 589Q401 589 387 595T357 614Q344 623 334 628T314 633Q298 633 283 622T252 590L196 615Q222 663 254 687T326 712Z" horiz-adv-x="620" unicode="õ"/>
			<glyph d="M345 532Q457 532 517 474T578 318Q578 226 539 150T431 30T272 -14Q163 -14 102 46T42 207Q42 298 80 372T186 489T345 532ZM338 437Q255 437 210 371T166 207Q166 149 194 115T282 81Q337 81 376 113T436 197T456 313Q456 371 427 404T338 437ZM284 724Q340 724 340 674Q340 638 322 616T266 594Q208 594 208 645Q208 680 227 702T284 724ZM485 724Q541 724 541 674Q541 638 523 616T467 594Q409 594 409 645Q409 680 428 702T485 724Z" horiz-adv-x="620" unicode="ö"/>
			<glyph d="M347 574Q407 574 407 520Q407 482 388 458T327 435Q267 435 267 488Q267 526 286 550T347 574ZM110 341H510L495 245H95ZM278 144Q338 144 338 90Q338 52 319 28T258 5Q198 5 198 58Q198 96 217 120T278 144Z" horiz-adv-x="596" unicode="÷"/>
			<glyph d="M402 615L502 594L465 509Q520 484 549 435T578 318Q578 226 539 150T431 30T272 -14Q258 -14 251 -13L219 -97L118 -76L156 9Q100 35 71 86T42 207Q42 298 80 372T186 489T345 532Q362 532 370 531ZM339 439Q253 439 208 372T163 204Q163 128 205 99L345 439ZM417 420L278 79H281Q367 79 412 147T458 319Q458 392 417 420Z" horiz-adv-x="620" unicode="ø"/>
			<glyph d="M112 518H232L182 200Q178 176 178 157Q178 124 195 104T250 85Q297 85 334 116T396 195T428 296L463 518H583L520 118Q511 65 509 0H398Q395 36 405 78H403Q375 37 326 11T225 -14Q143 -14 99 32T56 146Q56 165 60 186ZM328 769L495 624L443 568L260 692Z" horiz-adv-x="618" unicode="ù"/>
			<glyph d="M112 518H232L182 200Q178 176 178 157Q178 124 195 104T250 85Q297 85 334 116T396 195T428 296L463 518H583L520 118Q511 65 509 0H398Q395 36 405 78H403Q375 37 326 11T225 -14Q143 -14 99 32T56 146Q56 165 60 186ZM445 769L492 679L293 568L255 634Z" horiz-adv-x="618" unicode="ú"/>
			<glyph d="M112 518H232L182 200Q178 176 178 157Q178 124 195 104T250 85Q297 85 334 116T396 195T428 296L463 518H583L520 118Q511 65 509 0H398Q395 36 405 78H403Q375 37 326 11T225 -14Q143 -14 99 32T56 146Q56 165 60 186ZM345 744H438L544 616L496 568L384 669L239 570L195 619Z" horiz-adv-x="618" unicode="û"/>
			<glyph d="M112 518H232L182 200Q178 176 178 157Q178 124 195 104T250 85Q297 85 334 116T396 195T428 296L463 518H583L520 118Q511 65 509 0H398Q395 36 405 78H403Q375 37 326 11T225 -14Q143 -14 99 32T56 146Q56 165 60 186ZM282 724Q338 724 338 674Q338 638 320 616T264 594Q206 594 206 645Q206 680 225 702T282 724ZM483 724Q539 724 539 674Q539 638 521 616T465 594Q407 594 407 645Q407 680 426 702T483 724Z" horiz-adv-x="618" unicode="ü"/>
			<glyph d="M41 518H167L230 125H232L406 518H535L264 -32Q225 -110 189 -153T108 -219T-7 -258L-31 -164Q14 -153 44 -139T99 -97T148 -20L156 -4ZM382 769L429 679L230 568L192 634Z" horiz-adv-x="493" unicode="ý"/>
			<glyph d="M149 708H269L227 447H229Q255 482 297 507T400 532Q492 532 537 476T583 327Q583 235 547 156T448 32T304 -14Q217 -14 160 23L117 -244H-3ZM363 437Q325 437 288 407T226 328T192 223L174 111Q203 94 229 87T289 81Q344 81 382 114T439 200T459 317Q459 375 434 406T363 437Z" horiz-adv-x="623" unicode="þ"/>
			<glyph d="M41 518H167L230 125H232L406 518H535L264 -32Q225 -110 189 -153T108 -219T-7 -258L-31 -164Q14 -153 44 -139T99 -97T148 -20L156 -4ZM220 724Q276 724 276 674Q276 638 258 616T202 594Q144 594 144 645Q144 680 163 702T220 724ZM421 724Q477 724 477 674Q477 638 459 616T403 594Q345 594 345 645Q345 680 364 702T421 724Z" horiz-adv-x="493" unicode="ÿ"/>
			<glyph d="M336 708H465L618 0H485L457 155H173L92 0H-43ZM382 582L220 251H440ZM280 879H576L564 798H267Z" horiz-adv-x="658" unicode="Ā"/>
			<glyph d="M343 532Q411 532 463 517T570 467L514 118Q506 63 504 0H393Q392 47 398 75H396Q362 27 320 6T219 -14Q132 -14 86 43T40 194Q40 288 77 365T184 487T343 532ZM345 436Q288 436 247 404T185 320T165 205Q165 145 189 113T257 81Q317 81 362 143T422 297L441 416Q418 428 395 432T345 436ZM228 687H524L512 606H215Z" unicode="ā"/>
			<glyph d="M336 708H465L618 0H485L457 155H173L92 0H-43ZM382 582L220 251H440ZM335 911Q337 882 357 865T413 849Q446 849 472 865T511 911L578 902Q561 839 514 803T402 767Q337 767 301 802T265 894V903Z" horiz-adv-x="658" unicode="Ă"/>
			<glyph d="M343 532Q411 532 463 517T570 467L514 118Q506 63 504 0H393Q392 47 398 75H396Q362 27 320 6T219 -14Q132 -14 86 43T40 194Q40 288 77 365T184 487T343 532ZM345 436Q288 436 247 404T185 320T165 205Q165 145 189 113T257 81Q317 81 362 143T422 297L441 416Q418 428 395 432T345 436ZM288 737Q291 699 312 679T370 660Q440 660 470 737L541 728Q522 654 477 615T363 577Q294 577 256 614T219 714V729Z" unicode="ă"/>
			<glyph d="M336 708H465L618 0H569Q516 -32 480 -68T445 -135Q445 -153 454 -161T484 -169Q509 -169 544 -153L565 -220Q517 -247 460 -247Q415 -247 385 -224T355 -162Q355 -62 484 7L457 155H173L92 0H-43ZM382 582L220 251H440Z" horiz-adv-x="658" unicode="Ą"/>
			<glyph d="M343 532Q411 532 463 517T570 467L514 118Q506 63 504 0H486Q433 -32 397 -68T362 -135Q362 -153 371 -161T401 -169Q426 -169 461 -153L482 -220Q434 -247 377 -247Q332 -247 302 -224T272 -162Q272 -64 393 3Q392 48 398 75H396Q362 27 320 6T219 -14Q132 -14 86 43T40 194Q40 288 77 365T184 487T343 532ZM345 436Q288 436 247 404T185 320T165 205Q165 145 189 113T257 81Q317 81 362 143T422 297L441 416Q418 428 395 432T345 436Z" unicode="ą"/>
			<glyph d="M461 728Q529 728 592 703T696 636L617 561Q550 620 452 620Q368 620 307 575T215 454T184 285Q184 196 229 144T368 92Q462 92 554 162L618 80Q564 34 499 8T349 -18Q205 -18 128 61T52 275Q52 403 102 506T246 668T461 728ZM539 946L580 856L374 763L345 829Z" horiz-adv-x="666" unicode="Ć"/>
			<glyph d="M344 532Q441 532 510 477L456 396Q407 433 335 433Q280 433 241 403T183 323T164 212Q164 154 192 120T277 87Q339 87 409 126L448 42Q365 -14 258 -14Q143 -14 92 49T42 204Q42 296 79 371T185 489T344 532ZM432 769L479 679L280 568L242 634Z" horiz-adv-x="510" unicode="ć"/>
			<glyph d="M461 728Q529 728 592 703T696 636L617 561Q550 620 452 620Q368 620 307 575T215 454T184 285Q184 196 229 144T368 92Q462 92 554 162L618 80Q564 34 499 8T349 -18Q205 -18 128 61T52 275Q52 403 102 506T246 668T461 728ZM431 919H523L633 813L584 763L470 846L329 762L292 817Z" horiz-adv-x="666" unicode="Ĉ"/>
			<glyph d="M344 532Q441 532 510 477L456 396Q407 433 335 433Q280 433 241 403T183 323T164 212Q164 154 192 120T277 87Q339 87 409 126L448 42Q365 -14 258 -14Q143 -14 92 49T42 204Q42 296 79 371T185 489T344 532ZM332 744H425L531 616L483 568L371 669L226 570L182 619Z" horiz-adv-x="510" unicode="ĉ"/>
			<glyph d="M461 728Q529 728 592 703T696 636L617 561Q550 620 452 620Q368 620 307 575T215 454T184 285Q184 196 229 144T368 92Q462 92 554 162L618 80Q564 34 499 8T349 -18Q205 -18 128 61T52 275Q52 403 102 506T246 668T461 728ZM474 929Q508 929 523 914T539 874Q539 838 518 814T455 791Q421 791 405 806T390 846Q390 882 410 905T474 929Z" horiz-adv-x="666" unicode="Ċ"/>
			<glyph d="M344 532Q441 532 510 477L456 396Q407 433 335 433Q280 433 241 403T183 323T164 212Q164 154 192 120T277 87Q339 87 409 126L448 42Q365 -14 258 -14Q143 -14 92 49T42 204Q42 296 79 371T185 489T344 532ZM372 752Q406 752 421 737T437 697Q437 661 416 637T353 614Q319 614 303 629T288 669Q288 705 308 728T372 752Z" horiz-adv-x="510" unicode="ċ"/>
			<glyph d="M461 728Q529 728 592 703T696 636L617 561Q550 620 452 620Q368 620 307 575T215 454T184 285Q184 196 229 144T368 92Q462 92 554 162L618 80Q564 34 499 8T349 -18Q205 -18 128 61T52 275Q52 403 102 506T246 668T461 728ZM341 931L455 847L595 930L634 876L493 774H401L293 879Z" horiz-adv-x="666" unicode="Č"/>
			<glyph d="M344 532Q441 532 510 477L456 396Q407 433 335 433Q280 433 241 403T183 323T164 212Q164 154 192 120T277 87Q339 87 409 126L448 42Q365 -14 258 -14Q143 -14 92 49T42 204Q42 296 79 371T185 489T344 532ZM234 755L347 654L491 753L535 704L386 579H293L186 707Z" horiz-adv-x="510" unicode="č"/>
			<glyph d="M150 708H378Q526 708 614 639T703 433Q703 303 652 205T505 53T278 0H38ZM258 605L179 104H281Q424 104 498 190T573 424Q573 517 520 561T363 605ZM285 931L399 847L539 930L578 876L437 774H345L237 879Z" horiz-adv-x="725" unicode="Ď"/>
			<glyph d="M497 708H617L524 118Q516 63 514 0H403Q402 47 408 75H406Q371 27 328 6T227 -14Q136 -14 88 42T41 194Q41 285 75 362T172 486T320 532Q368 532 402 521T462 489ZM327 436Q276 436 239 403T184 317T166 205Q166 145 192 113T266 81Q326 81 371 142T432 297L447 395Q403 436 327 436ZM701 726L795 700L711 534L642 551Z" horiz-adv-x="686" unicode="ď"/>
			<glyph d="M150 708H378Q526 708 614 639T703 433Q703 303 652 205T505 53T278 0H38L88 314H12L25 394H100ZM258 605L225 394H381L368 314H212L179 104H281Q424 104 498 190T573 424Q573 517 520 561T363 605Z" horiz-adv-x="724" unicode="Đ"/>
			<glyph d="M497 708H617L608 652H676L663 577H596L524 118Q516 63 514 0H403Q402 46 408 75H406Q371 27 328 6T227 -14Q136 -14 88 42T41 194Q41 285 75 362T172 486T320 532Q368 532 402 521T462 489L476 577H322L334 652H488ZM327 436Q276 436 239 403T184 317T166 205Q166 145 192 113T266 81Q326 81 371 142T432 297L447 395Q403 436 327 436Z" horiz-adv-x="623" unicode="đ"/>
			<glyph d="M150 708H586L570 607H259L229 412H495L479 315H213L180 103H507L491 0H38ZM240 879H536L524 798H227Z" horiz-adv-x="555" unicode="Ē"/>
			<glyph d="M339 532Q438 532 481 490T524 389Q524 290 425 247T161 199Q166 85 282 85Q322 85 353 94T420 125L463 47Q412 14 367 0T261 -14Q157 -14 99 43T42 201Q42 294 78 369T181 488T339 532ZM331 442Q266 442 225 400T169 289Q251 294 300 303T376 333T402 388Q402 414 386 428T331 442ZM207 687H503L491 606H194Z" horiz-adv-x="546" unicode="ē"/>
			<glyph d="M150 708H586L570 607H259L229 412H495L479 315H213L180 103H507L491 0H38ZM295 911Q297 882 317 865T373 849Q406 849 432 865T471 911L538 902Q521 839 474 803T362 767Q297 767 261 802T225 894V903Z" horiz-adv-x="555" unicode="Ĕ"/>
			<glyph d="M339 532Q438 532 481 490T524 389Q524 290 425 247T161 199Q166 85 282 85Q322 85 353 94T420 125L463 47Q412 14 367 0T261 -14Q157 -14 99 43T42 201Q42 294 78 369T181 488T339 532ZM331 442Q266 442 225 400T169 289Q251 294 300 303T376 333T402 388Q402 414 386 428T331 442ZM267 737Q270 699 291 679T349 660Q419 660 449 737L520 728Q501 654 456 615T342 577Q273 577 235 614T198 714V729Z" horiz-adv-x="546" unicode="ĕ"/>
			<glyph d="M150 708H586L570 607H259L229 412H495L479 315H213L180 103H507L491 0H38ZM394 929Q428 929 443 914T459 874Q459 838 438 814T375 791Q341 791 325 806T310 846Q310 882 330 905T394 929Z" horiz-adv-x="555" unicode="Ė"/>
			<glyph d="M339 532Q438 532 481 490T524 389Q524 290 425 247T161 199Q166 85 282 85Q322 85 353 94T420 125L463 47Q412 14 367 0T261 -14Q157 -14 99 43T42 201Q42 294 78 369T181 488T339 532ZM331 442Q266 442 225 400T169 289Q251 294 300 303T376 333T402 388Q402 414 386 428T331 442ZM363 752Q397 752 412 737T428 697Q428 661 407 637T344 614Q310 614 294 629T279 669Q279 705 299 728T363 752Z" horiz-adv-x="546" unicode="ė"/>
			<glyph d="M150 708H586L570 607H259L229 412H495L479 315H213L180 103H507L491 0H452Q399 -32 363 -68T328 -135Q328 -153 337 -161T367 -169Q392 -169 427 -153L448 -220Q400 -247 343 -247Q298 -247 268 -224T238 -162Q238 -67 354 0H38Z" horiz-adv-x="555" unicode="Ę"/>
			<glyph d="M339 532Q438 532 481 490T524 389Q524 290 425 247T161 199Q166 85 282 85Q322 85 353 94T420 125L463 47Q412 14 364 -1Q305 -39 269 -77T233 -145Q233 -163 242 -171T272 -179Q297 -179 332 -163L353 -230Q305 -257 248 -257Q203 -257 173 -234T143 -172Q143 -123 173 -84T262 -14H261Q157 -14 99 43T42 201Q42 294 78 369T181 488T339 532ZM331 442Q266 442 225 400T169 289Q251 294 300 303T376 333T402 388Q402 414 386 428T331 442Z" horiz-adv-x="547" unicode="ę"/>
			<glyph d="M150 708H586L570 607H259L229 412H495L479 315H213L180 103H507L491 0H38ZM261 931L375 847L515 930L554 876L413 774H321L213 879Z" horiz-adv-x="555" unicode="Ě"/>
			<glyph d="M339 532Q438 532 481 490T524 389Q524 290 425 247T161 199Q166 85 282 85Q322 85 353 94T420 125L463 47Q412 14 367 0T261 -14Q157 -14 99 43T42 201Q42 294 78 369T181 488T339 532ZM331 442Q266 442 225 400T169 289Q251 294 300 303T376 333T402 388Q402 414 386 428T331 442ZM224 755L337 654L481 753L525 704L376 579H283L176 707Z" horiz-adv-x="546" unicode="ě"/>
			<glyph d="M462 726Q531 726 593 701T696 634L621 561Q586 589 547 604T457 619Q368 619 305 574T211 451T180 278Q180 86 369 86Q411 86 445 94T517 116L542 278H399L414 375H673L622 48Q495 -18 354 -18Q205 -18 128 59T51 273Q51 401 101 504T245 666T462 726ZM438 919H530L640 813L591 763L477 846L336 762L299 817Z" horiz-adv-x="727" unicode="Ĝ"/>
			<glyph d="M343 532Q411 532 463 517T570 467L497 -9Q479 -130 409 -194T219 -258Q163 -258 112 -240T23 -195L75 -112Q143 -158 216 -158Q289 -158 328 -124T382 -11L398 77H396Q362 30 320 11T219 -8Q132 -8 86 47T41 197Q41 291 78 367T184 488T343 532ZM346 436Q289 436 248 404T186 320T166 206Q166 148 191 117T258 87Q318 87 363 146T423 297L442 416Q418 428 396 432T346 436ZM344 744H437L543 616L495 568L383 669L238 570L194 619Z" horiz-adv-x="605" unicode="ĝ"/>
			<glyph d="M462 726Q531 726 593 701T696 634L621 561Q586 589 547 604T457 619Q368 619 305 574T211 451T180 278Q180 86 369 86Q411 86 445 94T517 116L542 278H399L414 375H673L622 48Q495 -18 354 -18Q205 -18 128 59T51 273Q51 401 101 504T245 666T462 726ZM382 911Q384 882 404 865T460 849Q493 849 519 865T558 911L625 902Q608 839 561 803T449 767Q384 767 348 802T312 894V903Z" horiz-adv-x="727" unicode="Ğ"/>
			<glyph d="M343 532Q411 532 463 517T570 467L497 -9Q479 -130 409 -194T219 -258Q163 -258 112 -240T23 -195L75 -112Q143 -158 216 -158Q289 -158 328 -124T382 -11L398 77H396Q362 30 320 11T219 -8Q132 -8 86 47T41 197Q41 291 78 367T184 488T343 532ZM346 436Q289 436 248 404T186 320T166 206Q166 148 191 117T258 87Q318 87 363 146T423 297L442 416Q418 428 396 432T346 436ZM288 737Q291 699 312 679T370 660Q440 660 470 737L541 728Q522 654 477 615T363 577Q294 577 256 614T219 714V729Z" horiz-adv-x="605" unicode="ğ"/>
			<glyph d="M462 726Q531 726 593 701T696 634L621 561Q586 589 547 604T457 619Q368 619 305 574T211 451T180 278Q180 86 369 86Q411 86 445 94T517 116L542 278H399L414 375H673L622 48Q495 -18 354 -18Q205 -18 128 59T51 273Q51 401 101 504T245 666T462 726ZM481 929Q515 929 530 914T546 874Q546 838 525 814T462 791Q428 791 412 806T397 846Q397 882 417 905T481 929Z" horiz-adv-x="727" unicode="Ġ"/>
			<glyph d="M343 532Q411 532 463 517T570 467L497 -9Q479 -130 409 -194T219 -258Q163 -258 112 -240T23 -195L75 -112Q143 -158 216 -158Q289 -158 328 -124T382 -11L398 77H396Q362 30 320 11T219 -8Q132 -8 86 47T41 197Q41 291 78 367T184 488T343 532ZM346 436Q289 436 248 404T186 320T166 206Q166 148 191 117T258 87Q318 87 363 146T423 297L442 416Q418 428 396 432T346 436ZM383 752Q417 752 432 737T448 697Q448 661 427 637T364 614Q330 614 314 629T299 669Q299 705 319 728T383 752Z" horiz-adv-x="605" unicode="ġ"/>
			<glyph d="M462 726Q531 726 593 701T696 634L621 561Q586 589 547 604T457 619Q368 619 305 574T211 451T180 278Q180 86 369 86Q411 86 445 94T517 116L542 278H399L414 375H673L622 48Q495 -18 354 -18Q205 -18 128 59T51 273Q51 401 101 504T245 666T462 726ZM336 -57Q366 -57 381 -73T397 -118Q397 -125 395 -139Q388 -180 365 -215T297 -290L258 -255Q280 -233 291 -216T308 -178Q262 -170 262 -127Q262 -98 281 -77T336 -57Z" horiz-adv-x="727" unicode="Ģ"/>
			<glyph d="M343 532Q411 532 463 517T570 467L497 -9Q479 -130 409 -194T219 -258Q163 -258 112 -240T23 -195L75 -112Q143 -158 216 -158Q289 -158 328 -124T382 -11L398 77H396Q362 30 320 11T219 -8Q132 -8 86 47T41 197Q41 291 78 367T184 488T343 532ZM346 436Q289 436 248 404T186 320T166 206Q166 148 191 117T258 87Q318 87 363 146T423 297L442 416Q418 428 396 432T346 436ZM398 838L437 803Q415 781 404 764T387 726Q433 718 433 675Q433 646 413 625T359 605Q329 605 313 621T298 666Q298 673 300 687Q307 728 329 763T398 838Z" horiz-adv-x="605" unicode="ģ"/>
			<glyph d="M150 708H275L229 414H552L599 708H725L613 0H487L536 313H213L163 0H38ZM427 919H519L629 813L580 763L466 846L325 762L288 817Z" horiz-adv-x="733" unicode="Ĥ"/>
			<glyph d="M148 708H268L221 438H223Q245 475 298 503T404 532Q482 532 522 487T563 376Q563 359 560 341L505 0H385L436 318Q439 338 439 356Q439 433 370 433Q323 433 283 393T217 290T180 158L155 0H36ZM377 919H469L579 813L530 763L416 846L275 762L238 817Z" horiz-adv-x="618" unicode="ĥ"/>
			<glyph d="M150 708H275L259 608H583L599 708H725L709 608H788L775 527H696L613 0H487L536 313H213L163 0H38L121 527H38L51 608H134ZM247 527L229 414H552L570 527Z" horiz-adv-x="733" unicode="Ħ"/>
			<glyph d="M148 708H268L258 652H411L398 576H245L221 438H223Q245 475 298 503T404 532Q482 532 522 487T563 376Q563 359 560 341L505 0H385L436 318Q439 338 439 356Q439 433 370 433Q323 433 283 393T217 290T180 158L155 0H36L127 576H57L69 652H139Z" horiz-adv-x="619" unicode="ħ"/>
			<glyph d="M119 708H405L391 616H310L227 95H308L293 0H7L22 95H104L187 616H105ZM237 904Q256 904 269 897T300 878Q313 868 322 863T341 859Q358 859 373 870T404 903L460 877Q434 829 403 805T331 781Q312 781 298 787T268 806Q255 815 245 820T225 825Q209 825 194 814T163 782L107 807Q133 855 165 879T237 904Z" horiz-adv-x="381" unicode="Ĩ"/>
			<glyph d="M118 518H238L156 0H36ZM153 712Q172 712 185 705T216 686Q229 676 238 671T257 667Q274 667 289 678T320 711L376 685Q350 637 319 613T247 589Q228 589 214 595T184 614Q171 623 161 628T141 633Q125 633 110 622T79 590L23 615Q49 663 81 687T153 712Z" horiz-adv-x="274" unicode="ĩ"/>
			<glyph d="M119 708H405L391 616H310L227 95H308L293 0H7L22 95H104L187 616H105ZM142 879H438L426 798H129Z" horiz-adv-x="381" unicode="Ī"/>
			<glyph d="M118 518H238L156 0H36ZM57 687H353L341 606H44Z" horiz-adv-x="274" unicode="ī"/>
			<glyph d="M119 708H405L391 616H310L227 95H308L293 0H7L22 95H104L187 616H105ZM197 911Q199 882 219 865T275 849Q308 849 334 865T373 911L440 902Q423 839 376 803T264 767Q199 767 163 802T127 894V903Z" horiz-adv-x="381" unicode="Ĭ"/>
			<glyph d="M118 518H238L156 0H36ZM118 737Q121 699 142 679T200 660Q270 660 300 737L371 728Q352 654 307 615T193 577Q124 577 86 614T49 714V729Z" horiz-adv-x="274" unicode="ĭ"/>
			<glyph d="M119 708H405L391 616H310L227 95H308L293 0H190Q137 -32 101 -68T66 -135Q66 -153 75 -161T105 -169Q130 -169 165 -153L186 -220Q138 -247 81 -247Q36 -247 6 -224T-24 -162Q-24 -67 92 0H7L22 95H104L187 616H105Z" horiz-adv-x="381" unicode="Į"/>
			<glyph d="M214 752Q248 752 263 737T279 697Q279 661 258 637T195 614Q161 614 145 629T130 669Q130 705 150 728T214 752ZM118 518H238L156 0H130Q77 -32 41 -68T6 -135Q6 -153 15 -161T45 -169Q70 -169 105 -153L126 -220Q78 -247 21 -247Q-24 -247 -54 -224T-84 -162Q-84 -65 36 2Z" horiz-adv-x="274" unicode="į"/>
			<glyph d="M119 708H405L391 616H310L227 95H308L293 0H7L22 95H104L187 616H105ZM296 929Q330 929 345 914T361 874Q361 838 340 814T277 791Q243 791 227 806T212 846Q212 882 232 905T296 929Z" horiz-adv-x="381" unicode="İ"/>
			<glyph d="M118 518H238L156 0H36Z" horiz-adv-x="274" unicode="ı"/>
			<glyph d="M119 708H405L391 616H310L227 95H308L293 0H7L22 95H104L187 616H105ZM672 708H797L718 209Q702 109 644 45T482 -18Q444 -18 408 -8T347 20L403 109Q438 89 479 89Q574 89 593 209Z" horiz-adv-x="797" unicode="Ĳ"/>
			<glyph d="M214 752Q248 752 263 737T279 697Q279 661 258 637T195 614Q161 614 145 629T130 669Q130 705 150 728T214 752ZM488 752Q522 752 537 737T553 697Q553 661 532 637T469 614Q435 614 419 629T404 669Q404 705 424 728T488 752ZM118 518H238L156 0H36ZM392 518H512L429 -9Q417 -83 393 -130T327 -208T220 -258L189 -166Q244 -148 270 -113T308 -10Z" horiz-adv-x="549" unicode="ĳ"/>
			<glyph d="M291 708H416L337 209Q321 109 263 45T101 -18Q63 -18 27 -8T-34 20L22 109Q57 89 98 89Q193 89 212 209ZM339 919H431L541 813L492 763L378 846L237 762L200 817Z" horiz-adv-x="416" unicode="Ĵ"/>
			<glyph d="M118 518H238L155 -9Q143 -83 119 -130T53 -208T-54 -258L-85 -166Q-30 -148 -3 -113T34 -10ZM174 744H267L373 616L325 568L213 669L68 570L24 619Z" horiz-adv-x="275" unicode="ĵ"/>
			<glyph d="M150 708H275L228 412L549 708H698L343 382L611 0H467L258 304L203 254L163 0H38ZM275 -57Q305 -57 320 -73T336 -118Q336 -125 334 -139Q327 -180 304 -215T236 -290L197 -255Q219 -233 230 -216T247 -178Q201 -170 201 -127Q201 -98 220 -77T275 -57Z" horiz-adv-x="644" unicode="Ķ"/>
			<glyph d="M148 708H268L208 328L433 518H585L329 306L519 0H382L242 233L186 187L156 0H36ZM250 -57Q280 -57 295 -73T311 -118Q311 -125 309 -139Q302 -180 279 -215T211 -290L172 -255Q194 -233 205 -216T222 -178Q176 -170 176 -127Q176 -98 195 -77T250 -57Z" horiz-adv-x="559" unicode="ķ"/>
			<glyph d="M118 518H238L208 328L433 518H585L329 306L519 0H382L242 233L186 187L156 0H36Z" horiz-adv-x="567" unicode="ĸ"/>
			<glyph d="M150 708H275L180 105H481L464 0H38ZM321 946L362 856L156 763L127 829Z" horiz-adv-x="509" unicode="Ĺ"/>
			<glyph d="M148 708H268L156 0H36ZM306 946L347 856L141 763L112 829Z" horiz-adv-x="274" unicode="ĺ"/>
			<glyph d="M150 708H275L180 105H481L464 0H38ZM256 -57Q286 -57 301 -73T317 -118Q317 -125 315 -139Q308 -180 285 -215T217 -290L178 -255Q200 -233 211 -216T228 -178Q182 -170 182 -127Q182 -98 201 -77T256 -57Z" horiz-adv-x="509" unicode="Ļ"/>
			<glyph d="M148 708H268L156 0H36ZM90 -57Q120 -57 135 -73T151 -118Q151 -125 149 -139Q142 -180 119 -215T51 -290L12 -255Q34 -233 45 -216T62 -178Q16 -170 16 -127Q16 -98 35 -77T90 -57Z" horiz-adv-x="274" unicode="ļ"/>
			<glyph d="M150 708H275L180 105H481L464 0H38ZM373 726L467 700L383 534L314 551Z" horiz-adv-x="509" unicode="Ľ"/>
			<glyph d="M148 708H268L156 0H36ZM347 726L441 700L357 534L288 551Z" horiz-adv-x="332" unicode="ľ"/>
			<glyph d="M150 708H275L180 105H481L464 0H38ZM414 462Q448 462 463 447T478 408Q478 373 458 350T396 327Q362 327 347 341T332 381Q332 416 352 439T414 462Z" horiz-adv-x="509" unicode="Ŀ"/>
			<glyph d="M148 708H268L156 0H36ZM321 407Q354 407 369 392T384 353Q384 318 364 295T302 272Q269 272 254 286T239 326Q239 361 259 384T321 407Z" horiz-adv-x="321" unicode="ŀ"/>
			<glyph d="M152 708H277L230 407L418 500L445 423L214 308L182 105H483L466 0H40L78 241L44 225L17 303L94 341Z" horiz-adv-x="511" unicode="Ł"/>
			<glyph d="M152 708H272L225 414H226L280 441L304 366L211 319L160 0H40L80 254L29 228L5 302L95 348Z" horiz-adv-x="285" unicode="ł"/>
			<glyph d="M150 708L290 707L554 166H556L638 708H754L642 0H503L240 543H237L155 0H38ZM551 946L592 856L386 763L357 829Z" horiz-adv-x="762" unicode="Ń"/>
			<glyph d="M404 532Q482 532 522 487T563 376Q563 359 560 341L505 0H385L436 318Q437 325 438 334T439 356Q439 433 370 433Q323 433 283 393T217 290T180 158L155 0H35L98 401Q105 446 109 518H221Q223 476 213 428H215Q242 472 294 502T404 532ZM465 769L512 679L313 568L275 634Z" horiz-adv-x="618" unicode="ń"/>
			<glyph d="M150 708L290 707L554 166H556L638 708H754L642 0H503L240 543H237L155 0H38ZM334 -57Q364 -57 379 -73T395 -118Q395 -125 393 -139Q386 -180 363 -215T295 -290L256 -255Q278 -233 289 -216T306 -178Q260 -170 260 -127Q260 -98 279 -77T334 -57Z" horiz-adv-x="762" unicode="Ņ"/>
			<glyph d="M404 532Q482 532 522 487T563 376Q563 359 560 341L505 0H385L436 318Q437 325 438 334T439 356Q439 433 370 433Q323 433 283 393T217 290T180 158L155 0H35L98 401Q105 446 109 518H221Q223 476 213 428H215Q242 472 294 502T404 532ZM262 -57Q292 -57 307 -73T323 -118Q323 -125 321 -139Q314 -180 291 -215T223 -290L184 -255Q206 -233 217 -216T234 -178Q188 -170 188 -127Q188 -98 207 -77T262 -57Z" horiz-adv-x="618" unicode="ņ"/>
			<glyph d="M150 708L290 707L554 166H556L638 708H754L642 0H503L240 543H237L155 0H38ZM353 931L467 847L607 930L646 876L505 774H413L305 879Z" horiz-adv-x="762" unicode="Ň"/>
			<glyph d="M404 532Q482 532 522 487T563 376Q563 359 560 341L505 0H385L436 318Q437 325 438 334T439 356Q439 433 370 433Q323 433 283 393T217 290T180 158L155 0H35L98 401Q105 446 109 518H221Q223 476 213 428H215Q242 472 294 502T404 532ZM267 755L380 654L524 753L568 704L419 579H326L219 707Z" horiz-adv-x="618" unicode="ň"/>
			<glyph d="M404 532Q482 532 522 487T563 376Q563 359 560 341L505 0H385L436 318Q437 325 438 334T439 356Q439 433 370 433Q323 433 283 393T217 290T180 158L155 0H35L98 401Q105 446 109 518H221Q223 476 213 428H215Q242 472 294 502T404 532ZM146 786Q175 786 191 769T207 724Q207 718 205 704Q198 663 175 628T107 552L68 587Q90 611 101 627T118 665Q94 669 83 682T72 715Q72 745 91 765T146 786Z" horiz-adv-x="618" unicode="ŉ"/>
			<glyph d="M150 708L290 707L554 166H556L638 708H754L642 0Q630 -79 605 -128T540 -208T432 -258L402 -166Q459 -147 484 -111T522 0H503L240 543H237L155 0H38Z" horiz-adv-x="762" unicode="Ŋ"/>
			<glyph d="M404 532Q482 532 522 487T563 376Q563 359 560 341L504 -8Q493 -82 468 -130T402 -208T295 -258L264 -166Q320 -147 346 -112T384 -9L436 318Q437 325 438 334T439 356Q439 433 370 433Q323 433 283 393T217 290T180 158L155 0H35L98 401Q105 446 109 518H221Q223 476 213 428H215Q242 472 294 502T404 532Z" horiz-adv-x="618" unicode="ŋ"/>
			<glyph d="M465 726Q562 726 631 690T736 587T772 431Q772 304 720 201T575 40T358 -18Q261 -18 192 18T87 121T52 278Q52 405 103 507T249 667T465 726ZM455 618Q369 618 307 574T213 454T181 285Q181 192 228 141T370 90Q456 90 518 134T612 255T644 423Q644 517 597 567T455 618ZM352 879H648L636 798H339Z" horiz-adv-x="794" unicode="Ō"/>
			<glyph d="M345 532Q457 532 517 474T578 318Q578 226 539 150T431 30T272 -14Q163 -14 102 46T42 207Q42 298 80 372T186 489T345 532ZM338 437Q255 437 210 371T166 207Q166 149 194 115T282 81Q337 81 376 113T436 197T456 313Q456 371 427 404T338 437ZM231 687H527L515 606H218Z" horiz-adv-x="620" unicode="ō"/>
			<glyph d="M465 726Q562 726 631 690T736 587T772 431Q772 304 720 201T575 40T358 -18Q261 -18 192 18T87 121T52 278Q52 405 103 507T249 667T465 726ZM455 618Q369 618 307 574T213 454T181 285Q181 192 228 141T370 90Q456 90 518 134T612 255T644 423Q644 517 597 567T455 618ZM407 911Q409 882 429 865T485 849Q518 849 544 865T583 911L650 902Q633 839 586 803T474 767Q409 767 373 802T337 894V903Z" horiz-adv-x="794" unicode="Ŏ"/>
			<glyph d="M345 532Q457 532 517 474T578 318Q578 226 539 150T431 30T272 -14Q163 -14 102 46T42 207Q42 298 80 372T186 489T345 532ZM338 437Q255 437 210 371T166 207Q166 149 194 115T282 81Q337 81 376 113T436 197T456 313Q456 371 427 404T338 437ZM291 737Q294 699 315 679T373 660Q443 660 473 737L544 728Q525 654 480 615T366 577Q297 577 259 614T222 714V729Z" horiz-adv-x="620" unicode="ŏ"/>
			<glyph d="M465 726Q562 726 631 690T736 587T772 431Q772 304 720 201T575 40T358 -18Q261 -18 192 18T87 121T52 278Q52 405 103 507T249 667T465 726ZM455 618Q369 618 307 574T213 454T181 285Q181 192 228 141T370 90Q456 90 518 134T612 255T644 423Q644 517 597 567T455 618ZM445 965L518 923L383 762L333 790ZM593 958L660 908L518 755L470 789Z" horiz-adv-x="794" unicode="Ő"/>
			<glyph d="M345 532Q457 532 517 474T578 318Q578 226 539 150T431 30T272 -14Q163 -14 102 46T42 207Q42 298 80 372T186 489T345 532ZM338 437Q255 437 210 371T166 207Q166 149 194 115T282 81Q337 81 376 113T436 197T456 313Q456 371 427 404T338 437ZM323 773L396 731L261 570L211 598ZM471 766L538 716L396 563L348 597Z" horiz-adv-x="620" unicode="ő"/>
			<glyph d="M450 726Q518 726 563 708H1034L1018 607H676Q731 535 731 429V412H944L928 315H719Q705 251 676 196T603 103H955L939 0H455Q403 -18 345 -18Q253 -18 187 18T86 120T52 277Q52 402 100 504T238 666T450 726ZM445 618Q360 618 300 572T211 451T181 285Q181 194 226 142T360 90Q438 90 493 137T577 263T605 431Q605 519 565 568T445 618Z" horiz-adv-x="1004" unicode="Œ"/>
			<glyph d="M337 532Q473 532 521 422Q556 474 609 503T732 532Q789 532 829 511T890 458T911 391Q911 288 817 251T557 210V206Q557 85 679 85Q714 85 741 94T807 125L850 47Q799 14 757 0T657 -14Q520 -14 477 91Q403 -14 265 -14Q197 -14 146 14T69 92T42 208Q42 298 78 372T182 489T337 532ZM722 442Q662 442 623 403T567 297Q650 301 695 308T764 333T789 388Q789 412 772 427T722 442ZM332 437Q279 437 241 405T185 320T166 207Q166 149 193 115T276 81Q329 81 367 113T424 198T444 313Q444 371 416 404T332 437Z" horiz-adv-x="934" unicode="œ"/>
			<glyph d="M150 708H386Q451 708 503 686T587 620T618 514Q618 417 571 354T437 264L565 0H428L317 242H203L163 0H38ZM259 607L217 338H327Q401 338 444 384T488 502Q488 555 454 581T367 607ZM447 946L488 856L282 763L253 829Z" horiz-adv-x="637" unicode="Ŕ"/>
			<glyph d="M385 532Q406 532 419 527L398 417Q382 421 361 421Q287 421 240 334T175 120L155 0H35L98 401Q105 446 109 518H221Q221 480 209 415H211Q243 481 283 506T385 532ZM339 769L386 679L187 568L149 634Z" horiz-adv-x="382" unicode="ŕ"/>
			<glyph d="M150 708H386Q451 708 503 686T587 620T618 514Q618 417 571 354T437 264L565 0H428L317 242H203L163 0H38ZM259 607L217 338H327Q401 338 444 384T488 502Q488 555 454 581T367 607ZM272 -57Q302 -57 317 -73T333 -118Q333 -125 331 -139Q324 -180 301 -215T233 -290L194 -255Q216 -233 227 -216T244 -178Q198 -170 198 -127Q198 -98 217 -77T272 -57Z" horiz-adv-x="637" unicode="Ŗ"/>
			<glyph d="M385 532Q406 532 419 527L398 417Q382 421 361 421Q287 421 240 334T175 120L155 0H35L98 401Q105 446 109 518H221Q221 480 209 415H211Q243 481 283 506T385 532ZM89 -57Q119 -57 134 -73T150 -118Q150 -125 148 -139Q141 -180 118 -215T50 -290L11 -255Q33 -233 44 -216T61 -178Q15 -170 15 -127Q15 -98 34 -77T89 -57Z" horiz-adv-x="382" unicode="ŗ"/>
			<glyph d="M150 708H386Q451 708 503 686T587 620T618 514Q618 417 571 354T437 264L565 0H428L317 242H203L163 0H38ZM259 607L217 338H327Q401 338 444 384T488 502Q488 555 454 581T367 607ZM249 931L363 847L503 930L542 876L401 774H309L201 879Z" horiz-adv-x="637" unicode="Ř"/>
			<glyph d="M385 532Q406 532 419 527L398 417Q382 421 361 421Q287 421 240 334T175 120L155 0H35L98 401Q105 446 109 518H221Q221 480 209 415H211Q243 481 283 506T385 532ZM141 755L254 654L398 753L442 704L293 579H200L93 707Z" horiz-adv-x="382" unicode="ř"/>
			<glyph d="M360 725Q482 725 578 657L515 574Q475 599 435 611T352 624Q290 624 252 598T214 520Q214 483 244 461T339 421Q425 396 473 352T521 234Q521 156 483 99T379 12T229 -18Q161 -18 99 3T-6 63L61 144Q135 86 235 86Q305 86 348 120T391 216Q391 260 358 283T253 326Q174 348 131 393T89 506Q89 611 164 668T360 725ZM450 946L491 856L285 763L256 829Z" horiz-adv-x="562" unicode="Ś"/>
			<glyph d="M274 532Q378 532 449 478L393 403Q335 440 273 440Q179 440 179 378Q179 354 200 339T278 309Q405 270 405 168Q405 79 342 32T177 -14Q67 -14 -9 44L47 120Q108 79 181 79Q280 79 280 151Q280 177 259 193T186 227Q57 266 57 365Q57 445 117 488T274 532ZM363 769L410 679L211 568L173 634Z" horiz-adv-x="459" unicode="ś"/>
			<glyph d="M360 725Q482 725 578 657L515 574Q475 599 435 611T352 624Q290 624 252 598T214 520Q214 483 244 461T339 421Q425 396 473 352T521 234Q521 156 483 99T379 12T229 -18Q161 -18 99 3T-6 63L61 144Q135 86 235 86Q305 86 348 120T391 216Q391 260 358 283T253 326Q174 348 131 393T89 506Q89 611 164 668T360 725ZM342 919H434L544 813L495 763L381 846L240 762L203 817Z" horiz-adv-x="562" unicode="Ŝ"/>
			<glyph d="M274 532Q378 532 449 478L393 403Q335 440 273 440Q179 440 179 378Q179 354 200 339T278 309Q405 270 405 168Q405 79 342 32T177 -14Q67 -14 -9 44L47 120Q108 79 181 79Q280 79 280 151Q280 177 259 193T186 227Q57 266 57 365Q57 445 117 488T274 532ZM264 744H357L463 616L415 568L303 669L158 570L114 619Z" horiz-adv-x="459" unicode="ŝ"/>
			<glyph d="M360 725Q482 725 578 657L515 574Q475 599 435 611T352 624Q290 624 252 598T214 520Q214 483 244 461T339 421Q425 396 473 352T521 234Q521 127 452 61T271 -16L252 -55Q261 -54 275 -54Q306 -54 326 -73T346 -127Q346 -183 305 -215T203 -248Q172 -248 142 -240T92 -219L123 -160Q161 -180 202 -180Q228 -180 244 -168T260 -134Q260 -109 228 -109Q216 -109 199 -114H146L196 -17Q136 -12 84 8T-6 63L61 144Q135 86 235 86Q305 86 348 120T391 216Q391 260 358 283T253 326Q174 348 131 393T89 506Q89 611 164 668T360 725Z" horiz-adv-x="562" unicode="Ş"/>
			<glyph d="M274 532Q378 532 449 478L393 403Q335 440 273 440Q179 440 179 378Q179 354 200 339T278 309Q405 270 405 168Q405 88 355 42T220 -12L199 -55Q208 -54 222 -54Q253 -54 273 -73T293 -127Q293 -183 252 -215T150 -248Q119 -248 89 -240T39 -219L70 -160Q108 -180 149 -180Q175 -180 191 -168T207 -134Q207 -109 175 -109Q163 -109 146 -114H93L145 -13Q55 -5 -9 44L47 120Q108 79 181 79Q280 79 280 151Q280 177 259 193T186 227Q57 266 57 365Q57 445 117 488T274 532Z" horiz-adv-x="459" unicode="ş"/>
			<glyph d="M360 725Q482 725 578 657L515 574Q475 599 435 611T352 624Q290 624 252 598T214 520Q214 483 244 461T339 421Q425 396 473 352T521 234Q521 156 483 99T379 12T229 -18Q161 -18 99 3T-6 63L61 144Q135 86 235 86Q305 86 348 120T391 216Q391 260 358 283T253 326Q174 348 131 393T89 506Q89 611 164 668T360 725ZM252 931L366 847L506 930L545 876L404 774H312L204 879Z" horiz-adv-x="562" unicode="Š"/>
			<glyph d="M274 532Q378 532 449 478L393 403Q335 440 273 440Q179 440 179 378Q179 354 200 339T278 309Q405 270 405 168Q405 79 342 32T177 -14Q67 -14 -9 44L47 120Q108 79 181 79Q280 79 280 151Q280 177 259 193T186 227Q57 266 57 365Q57 445 117 488T274 532ZM165 755L278 654L422 753L466 704L317 579H224L117 707Z" horiz-adv-x="459" unicode="š"/>
			<glyph d="M76 708H619L603 602H394L299 0H275L248 -55Q257 -54 271 -54Q302 -54 322 -73T342 -127Q342 -183 301 -215T199 -248Q168 -248 138 -240T88 -219L119 -160Q157 -180 198 -180Q224 -180 240 -168T256 -134Q256 -109 224 -109Q212 -109 195 -114H142L200 0H172L268 602H59Z" horiz-adv-x="552" unicode="Ţ"/>
			<glyph d="M286 680L260 515H386L372 424H245L205 169Q201 144 201 131Q201 85 258 85Q283 85 304 91L310 -1Q276 -12 231 -14L211 -55Q220 -54 234 -54Q265 -54 285 -73T305 -127Q305 -183 264 -215T162 -248Q131 -248 101 -240T51 -219L82 -160Q120 -180 161 -180Q187 -180 203 -168T219 -134Q219 -109 187 -109Q175 -109 158 -114H105L160 -6Q121 6 100 36T79 111Q79 131 84 161L125 424H41L54 501L140 515L158 637Z" horiz-adv-x="375" unicode="ţ"/>
			<glyph d="M76 708H619L603 602H394L299 0H172L268 602H59ZM247 931L361 847L501 930L540 876L399 774H307L199 879Z" horiz-adv-x="552" unicode="Ť"/>
			<glyph d="M286 680L260 515H386L372 424H245L205 169Q201 144 201 131Q201 85 258 85Q283 85 304 91L310 -1Q271 -14 219 -14Q152 -14 115 18T79 111Q79 131 84 161L125 424H41L54 501L140 515L158 637ZM378 726L472 700L388 534L319 551Z" horiz-adv-x="375" unicode="ť"/>
			<glyph d="M76 708H619L603 602H394L361 394H476L463 314H349L299 0H172L222 314H107L120 394H235L268 602H59Z" horiz-adv-x="551" unicode="Ŧ"/>
			<glyph d="M286 680L260 515H386L372 424H245L230 330H333L319 245H217L205 169Q201 144 201 131Q201 85 258 85Q283 85 304 91L310 -1Q271 -14 219 -14Q152 -14 115 18T79 111Q79 131 84 161L97 245H13L27 330H110L125 424H41L54 501L140 515L158 637Z" horiz-adv-x="375" unicode="ŧ"/>
			<glyph d="M142 708H267L197 264Q192 234 192 213Q192 151 225 120T333 90Q421 90 466 134T526 265L596 708H721L649 255Q629 125 546 53T326 -18Q203 -18 134 39T65 200Q65 223 70 256ZM406 904Q425 904 438 897T469 878Q482 868 491 863T510 859Q527 859 542 870T573 903L629 877Q603 829 572 805T500 781Q481 781 467 787T437 806Q424 815 414 820T394 825Q378 825 363 814T332 782L276 807Q302 855 334 879T406 904Z" horiz-adv-x="722" unicode="Ũ"/>
			<glyph d="M112 518H232L182 200Q178 176 178 157Q178 124 195 104T250 85Q297 85 334 116T396 195T428 296L463 518H583L520 118Q511 65 509 0H398Q395 36 405 78H403Q375 37 326 11T225 -14Q143 -14 99 32T56 146Q56 165 60 186ZM323 712Q342 712 355 705T386 686Q399 676 408 671T427 667Q444 667 459 678T490 711L546 685Q520 637 489 613T417 589Q398 589 384 595T354 614Q341 623 331 628T311 633Q295 633 280 622T249 590L193 615Q219 663 251 687T323 712Z" horiz-adv-x="618" unicode="ũ"/>
			<glyph d="M142 708H267L197 264Q192 234 192 213Q192 151 225 120T333 90Q421 90 466 134T526 265L596 708H721L649 255Q629 125 546 53T326 -18Q203 -18 134 39T65 200Q65 223 70 256ZM311 879H607L595 798H298Z" horiz-adv-x="722" unicode="Ū"/>
			<glyph d="M112 518H232L182 200Q178 176 178 157Q178 124 195 104T250 85Q297 85 334 116T396 195T428 296L463 518H583L520 118Q511 65 509 0H398Q395 36 405 78H403Q375 37 326 11T225 -14Q143 -14 99 32T56 146Q56 165 60 186ZM228 687H524L512 606H215Z" horiz-adv-x="618" unicode="ū"/>
			<glyph d="M142 708H267L197 264Q192 234 192 213Q192 151 225 120T333 90Q421 90 466 134T526 265L596 708H721L649 255Q629 125 546 53T326 -18Q203 -18 134 39T65 200Q65 223 70 256ZM366 911Q368 882 388 865T444 849Q477 849 503 865T542 911L609 902Q592 839 545 803T433 767Q368 767 332 802T296 894V903Z" horiz-adv-x="722" unicode="Ŭ"/>
			<glyph d="M112 518H232L182 200Q178 176 178 157Q178 124 195 104T250 85Q297 85 334 116T396 195T428 296L463 518H583L520 118Q511 65 509 0H398Q395 36 405 78H403Q375 37 326 11T225 -14Q143 -14 99 32T56 146Q56 165 60 186ZM289 737Q292 699 313 679T371 660Q441 660 471 737L542 728Q523 654 478 615T364 577Q295 577 257 614T220 714V729Z" horiz-adv-x="618" unicode="ŭ"/>
			<glyph d="M142 708H267L197 264Q192 234 192 213Q192 151 225 120T333 90Q421 90 466 134T526 265L596 708H721L649 255Q629 125 546 53T326 -18Q203 -18 134 39T65 200Q65 223 70 256ZM470 989Q523 989 552 963T582 896Q582 837 544 801T445 765Q393 765 363 791T334 859Q334 919 372 954T470 989ZM466 926Q442 926 427 910T413 864Q413 847 423 837T450 828Q474 828 488 844T502 891Q502 907 492 916T466 926Z" horiz-adv-x="722" unicode="Ů"/>
			<glyph d="M112 518H232L182 200Q178 176 178 157Q178 124 195 104T250 85Q297 85 334 116T396 195T428 296L463 518H583L520 118Q511 65 509 0H398Q395 36 405 78H403Q375 37 326 11T225 -14Q143 -14 99 32T56 146Q56 165 60 186ZM387 797Q440 797 469 771T499 704Q499 645 461 609T362 573Q310 573 280 599T251 667Q251 727 289 762T387 797ZM383 734Q359 734 344 718T330 672Q330 655 340 645T367 636Q391 636 405 652T419 699Q419 715 409 724T383 734Z" horiz-adv-x="618" unicode="ů"/>
			<glyph d="M142 708H267L197 264Q192 234 192 213Q192 151 225 120T333 90Q421 90 466 134T526 265L596 708H721L649 255Q629 125 546 53T326 -18Q203 -18 134 39T65 200Q65 223 70 256ZM404 965L477 923L342 762L292 790ZM552 958L619 908L477 755L429 789Z" horiz-adv-x="722" unicode="Ű"/>
			<glyph d="M112 518H232L182 200Q178 176 178 157Q178 124 195 104T250 85Q297 85 334 116T396 195T428 296L463 518H583L520 118Q511 65 509 0H398Q395 36 405 78H403Q375 37 326 11T225 -14Q143 -14 99 32T56 146Q56 165 60 186ZM321 773L394 731L259 570L209 598ZM469 766L536 716L394 563L346 597Z" horiz-adv-x="618" unicode="ű"/>
			<glyph d="M142 708H267L197 264Q192 234 192 213Q192 151 225 120T333 90Q421 90 466 134T526 265L596 708H721L649 255Q634 159 583 94T452 1Q392 -38 355 -76T318 -145Q318 -163 327 -171T357 -179Q382 -179 417 -163L438 -230Q390 -257 333 -257Q288 -257 258 -234T228 -172Q228 -81 340 -18H326Q203 -18 134 39T65 200Q65 223 70 256Z" horiz-adv-x="722" unicode="Ų"/>
			<glyph d="M112 518H232L182 200Q178 176 178 157Q178 124 195 104T250 85Q297 85 334 116T396 195T428 296L463 518H583L520 118Q511 65 509 0H492Q440 -32 405 -67T371 -133Q371 -151 380 -159T410 -167Q435 -167 470 -151L491 -218Q443 -245 386 -245Q341 -245 311 -222T281 -160Q281 -64 398 2Q395 37 405 78H403Q375 37 326 11T225 -14Q143 -14 99 32T56 146Q56 165 60 186Z" horiz-adv-x="618" unicode="ų"/>
			<glyph d="M78 708H203L255 167H258L491 708H620L683 167H686L913 708H1040L728 0H605L534 547H532L291 0H165ZM549 919H641L751 813L702 763L588 846L447 762L410 817Z" horiz-adv-x="977" unicode="Ŵ"/>
			<glyph d="M51 518H175L199 132H201L373 518H501L553 132H555L702 518H826L602 0H475L421 388H419L243 0H110ZM435 744H528L634 616L586 568L474 669L329 570L285 619Z" horiz-adv-x="795" unicode="ŵ"/>
			<glyph d="M54 708H191L309 403H311L524 708H670L358 301L310 0H185L234 303ZM353 919H445L555 813L506 763L392 846L251 762L214 817Z" horiz-adv-x="583" unicode="Ŷ"/>
			<glyph d="M41 518H167L230 125H232L406 518H535L264 -32Q225 -110 189 -153T108 -219T-7 -258L-31 -164Q14 -153 44 -139T99 -97T148 -20L156 -4ZM283 744H376L482 616L434 568L322 669L177 570L133 619Z" horiz-adv-x="493" unicode="ŷ"/>
			<glyph d="M54 708H191L309 403H311L524 708H670L358 301L310 0H185L234 303ZM294 916Q350 916 350 866Q350 830 332 808T276 786Q218 786 218 837Q218 872 237 894T294 916ZM495 916Q551 916 551 866Q551 830 533 808T477 786Q419 786 419 837Q419 872 438 894T495 916Z" horiz-adv-x="583" unicode="Ÿ"/>
			<glyph d="M114 708H605L589 609L159 105H518L501 0H-10L7 106L433 607H98ZM461 946L502 856L296 763L267 829Z" horiz-adv-x="581" unicode="Ź"/>
			<glyph d="M83 518H458L444 429L151 94H402L387 0H-10L4 95L294 428H68ZM370 769L417 679L218 568L180 634Z" horiz-adv-x="455" unicode="ź"/>
			<glyph d="M114 708H605L589 609L159 105H518L501 0H-10L7 106L433 607H98ZM396 929Q430 929 445 914T461 874Q461 838 440 814T377 791Q343 791 327 806T312 846Q312 882 332 905T396 929Z" horiz-adv-x="581" unicode="Ż"/>
			<glyph d="M83 518H458L444 429L151 94H402L387 0H-10L4 95L294 428H68ZM311 752Q345 752 360 737T376 697Q376 661 355 637T292 614Q258 614 242 629T227 669Q227 705 247 728T311 752Z" horiz-adv-x="455" unicode="ż"/>
			<glyph d="M114 708H605L589 609L159 105H518L501 0H-10L7 106L433 607H98ZM263 931L377 847L517 930L556 876L415 774H323L215 879Z" horiz-adv-x="581" unicode="Ž"/>
			<glyph d="M83 518H458L444 429L151 94H402L387 0H-10L4 95L294 428H68ZM172 755L285 654L429 753L473 704L324 579H231L124 707Z" horiz-adv-x="455" unicode="ž"/>
			<glyph d="M453 722Q518 722 567 703L531 618Q501 627 473 627Q383 627 371 539L367 515H488L473 424H354L285 -9Q273 -83 248 -130T183 -208T76 -258L45 -166Q100 -147 126 -112T164 -10L233 424H149L164 515H247L251 544Q265 630 313 676T453 722Z" unicode="ƒ"/>
			<glyph d="M360 725Q482 725 578 657L515 574Q475 599 435 611T352 624Q290 624 252 598T214 520Q214 483 244 461T339 421Q425 396 473 352T521 234Q521 156 483 99T379 12T229 -18Q161 -18 99 3T-6 63L61 144Q135 86 235 86Q305 86 348 120T391 216Q391 260 358 283T253 326Q174 348 131 393T89 506Q89 611 164 668T360 725ZM233 -57Q263 -57 278 -73T294 -118Q294 -125 292 -139Q285 -180 262 -215T194 -290L155 -255Q177 -233 188 -216T205 -178Q159 -170 159 -127Q159 -98 178 -77T233 -57Z" horiz-adv-x="562" unicode="Ș"/>
			<glyph d="M274 532Q378 532 449 478L393 403Q335 440 273 440Q179 440 179 378Q179 354 200 339T278 309Q405 270 405 168Q405 79 342 32T177 -14Q67 -14 -9 44L47 120Q108 79 181 79Q280 79 280 151Q280 177 259 193T186 227Q57 266 57 365Q57 445 117 488T274 532ZM180 -57Q210 -57 225 -73T241 -118Q241 -125 239 -139Q232 -180 209 -215T141 -290L102 -255Q124 -233 135 -216T152 -178Q106 -170 106 -127Q106 -98 125 -77T180 -57Z" horiz-adv-x="459" unicode="ș"/>
			<glyph d="M76 708H619L603 602H394L299 0H172L268 602H59ZM228 -57Q258 -57 273 -73T289 -118Q289 -125 287 -139Q280 -180 257 -215T189 -290L150 -255Q172 -233 183 -216T200 -178Q154 -170 154 -127Q154 -98 173 -77T228 -57Z" horiz-adv-x="552" unicode="Ț"/>
			<glyph d="M286 680L260 515H386L372 424H245L205 169Q201 144 201 131Q201 85 258 85Q283 85 304 91L310 -1Q271 -14 219 -14Q152 -14 115 18T79 111Q79 131 84 161L125 424H41L54 501L140 515L158 637ZM192 -57Q222 -57 237 -73T253 -118Q253 -125 251 -139Q244 -180 221 -215T153 -290L114 -255Q136 -233 147 -216T164 -178Q118 -170 118 -127Q118 -98 137 -77T192 -57Z" horiz-adv-x="375" unicode="ț"/>
			<glyph d="M118 518H238L155 -9Q143 -83 119 -130T53 -208T-54 -258L-85 -166Q-30 -148 -3 -113T34 -10Z" horiz-adv-x="275" unicode="ȷ"/>
			<glyph d="M235 744H328L434 616L386 568L274 669L129 570L85 619Z" horiz-adv-x="408" unicode="ˆ"/>
			<glyph d="M149 755L262 654L406 753L450 704L301 579H208L101 707Z" horiz-adv-x="409" unicode="ˇ"/>
			<glyph d="M98 687H394L382 606H85Z" horiz-adv-x="357" unicode="ˉ"/>
			<glyph d="M172 737Q175 699 196 679T254 660Q324 660 354 737L425 728Q406 654 361 615T247 577Q178 577 140 614T103 714V729Z" horiz-adv-x="382" unicode="˘"/>
			<glyph d="M180 752Q214 752 229 737T245 697Q245 661 224 637T161 614Q127 614 111 629T96 669Q96 705 116 728T180 752Z" horiz-adv-x="208" unicode="˙"/>
			<glyph d="M232 797Q285 797 314 771T344 704Q344 645 306 609T207 573Q155 573 125 599T96 667Q96 727 134 762T232 797ZM228 734Q204 734 189 718T175 672Q175 655 185 645T212 636Q236 636 250 652T264 699Q264 715 254 724T228 734Z" horiz-adv-x="306" unicode="˚"/>
			<glyph d="M98 9L179 0Q126 -32 90 -68T55 -135Q55 -153 64 -161T94 -169Q119 -169 154 -153L175 -220Q127 -247 70 -247Q25 -247 -5 -224T-35 -162Q-35 -60 98 9Z" horiz-adv-x="278" unicode="˛"/>
			<glyph d="M216 712Q235 712 248 705T279 686Q292 676 301 671T320 667Q337 667 352 678T383 711L439 685Q413 637 382 613T310 589Q291 589 277 595T247 614Q234 623 224 628T204 633Q188 633 173 622T142 590L86 615Q112 663 144 687T216 712Z" horiz-adv-x="401" unicode="˜"/>
			<glyph d="M196 773L269 731L134 570L84 598ZM344 766L411 716L269 563L221 597Z" horiz-adv-x="370" unicode="˝"/>
			<glyph d="M-1 838L38 803Q16 781 5 764T-12 726Q34 718 34 675Q34 646 14 625T-40 605Q-70 605 -85 621T-101 666Q-101 673 -99 687Q-92 728 -69 763T-1 838Z" horiz-adv-x="0" unicode="̒"/>
			<glyph d="M-150 -57Q-120 -57 -104 -73T-89 -118Q-89 -125 -91 -139Q-98 -180 -120 -215T-189 -290L-228 -255Q-206 -233 -195 -216T-178 -178Q-224 -170 -224 -127Q-224 -98 -204 -77T-150 -57Z" horiz-adv-x="0" unicode="̦"/>
			<glyph d="M340 708H471L631 0H-43ZM388 582L141 99H481Z" horiz-adv-x="671" unicode="Δ"/>
			<glyph d="M463 726Q558 726 627 689T732 585T769 430Q769 324 722 238T592 103H722L706 0H412L428 101L425 104Q493 121 541 169T614 284T639 427Q639 517 593 567T456 618Q372 618 310 573T215 453T182 289Q182 218 213 169T307 103H313L297 0H3L19 103H153Q55 172 55 305Q55 421 107 517T253 670T463 726Z" horiz-adv-x="790" unicode="Ω"/>
			<glyph d="M113 518H234L187 220Q183 190 183 178Q183 84 268 84Q326 84 367 128T420 241L464 518H584L521 118Q514 72 510 0H395Q395 44 397 61L395 60Q365 26 326 6T244 -14Q177 -14 152 33H150L125 -133Q114 -197 95 -244H-17Q0 -190 11 -125Z" horiz-adv-x="619" unicode="μ"/>
			<glyph d="M608 532L612 439Q572 424 520 423L475 138Q468 93 468 53Q468 24 471 0H354Q348 40 348 67Q348 99 354 139L399 423L232 422L165 0H45L112 422H31L46 518H511Q561 518 608 532Z" horiz-adv-x="585" unicode="π"/>
			<glyph d="M78 708H203L255 167H258L491 708H620L683 167H686L913 708H1040L728 0H605L534 547H532L291 0H165ZM528 946L711 825L664 768L467 867Z" horiz-adv-x="977" unicode="Ẁ"/>
			<glyph d="M51 518H175L199 132H201L373 518H501L553 132H555L702 518H826L602 0H475L421 388H419L243 0H110ZM418 769L585 624L533 568L350 692Z" horiz-adv-x="795" unicode="ẁ"/>
			<glyph d="M78 708H203L255 167H258L491 708H620L683 167H686L913 708H1040L728 0H605L534 547H532L291 0H165ZM658 946L699 856L493 763L464 829Z" horiz-adv-x="977" unicode="Ẃ"/>
			<glyph d="M51 518H175L199 132H201L373 518H501L553 132H555L702 518H826L602 0H475L421 388H419L243 0H110ZM534 769L581 679L382 568L344 634Z" horiz-adv-x="795" unicode="ẃ"/>
			<glyph d="M78 708H203L255 167H258L491 708H620L683 167H686L913 708H1040L728 0H605L534 547H532L291 0H165ZM491 916Q547 916 547 866Q547 830 529 808T473 786Q415 786 415 837Q415 872 434 894T491 916ZM692 916Q748 916 748 866Q748 830 730 808T674 786Q616 786 616 837Q616 872 635 894T692 916Z" horiz-adv-x="977" unicode="Ẅ"/>
			<glyph d="M51 518H175L199 132H201L373 518H501L553 132H555L702 518H826L602 0H475L421 388H419L243 0H110ZM371 724Q427 724 427 674Q427 638 409 616T353 594Q295 594 295 645Q295 680 314 702T371 724ZM572 724Q628 724 628 674Q628 638 610 616T554 594Q496 594 496 645Q496 680 515 702T572 724Z" horiz-adv-x="795" unicode="ẅ"/>
			<glyph d="M390 725Q475 725 539 696T658 613L489 430Q568 411 616 363T664 235Q664 159 628 101T530 13T389 -18Q290 -18 219 26L273 110Q302 96 329 90T388 84Q457 84 496 125T536 232Q536 283 494 314T354 357L365 440L504 596Q453 624 389 624Q321 624 281 594T228 485L151 0H26L105 493Q124 612 200 668T390 725Z" horiz-adv-x="706" unicode="ẞ"/>
			<glyph d="M54 708H191L309 403H311L524 708H670L358 301L310 0H185L234 303ZM331 946L514 825L467 768L270 867Z" horiz-adv-x="583" unicode="Ỳ"/>
			<glyph d="M41 518H167L230 125H232L406 518H535L264 -32Q225 -110 189 -153T108 -219T-7 -258L-31 -164Q14 -153 44 -139T99 -97T148 -20L156 -4ZM266 769L433 624L381 568L198 692Z" horiz-adv-x="493" unicode="ỳ"/>
			<glyph d="M110 341H501L486 245H95Z" horiz-adv-x="587" unicode="–"/>
			<glyph d="M51 341H552L536 245H36Z" horiz-adv-x="579" unicode="—"/>
			<glyph d="M224 727L266 688Q229 650 211 619T191 553Q221 549 233 533T246 489Q246 464 228 446T178 429Q144 429 126 451T108 512Q108 569 132 617T224 727Z" horiz-adv-x="259" unicode="‘"/>
			<glyph d="M170 727Q204 727 222 705T240 644Q240 587 216 538T124 429L82 468Q119 506 136 536T157 603Q127 607 114 623T102 667Q102 692 119 709T170 727Z" horiz-adv-x="221" unicode="’"/>
			<glyph d="M86 124Q120 124 138 102T156 41Q156 -16 132 -64T40 -174L-2 -135Q35 -97 52 -66T73 0Q43 4 30 20T18 64Q18 89 35 106T86 124Z" horiz-adv-x="259" unicode="‚"/>
			<glyph d="M410 727L452 688Q415 650 397 619T377 553Q407 549 419 533T432 489Q432 464 414 446T364 429Q330 429 312 451T294 512Q294 569 318 617T410 727ZM224 727L266 688Q229 650 211 619T191 553Q221 549 233 533T246 489Q246 464 228 446T178 429Q144 429 126 451T108 512Q108 569 132 617T224 727Z" horiz-adv-x="445" unicode="“"/>
			<glyph d="M366 727Q400 727 418 705T436 644Q436 587 412 538T320 429L278 468Q315 506 332 536T353 603Q323 607 310 623T298 667Q298 692 315 709T366 727ZM181 727Q215 727 233 705T251 644Q251 587 227 538T135 429L93 468Q130 506 147 536T168 603Q138 607 125 623T113 667Q113 692 130 709T181 727Z" horiz-adv-x="445" unicode="”"/>
			<glyph d="M86 124Q120 124 138 102T156 41Q156 -16 132 -64T40 -174L-2 -135Q35 -97 52 -66T73 0Q43 4 30 20T18 64Q18 89 35 106T86 124ZM272 124Q306 124 324 102T342 41Q342 -16 318 -64T226 -174L184 -135Q221 -97 238 -66T259 0Q229 4 216 20T204 64Q204 89 221 106T272 124Z" horiz-adv-x="445" unicode="„"/>
			<glyph d="M304 708H424L400 556H566L550 459H385L312 0H192L265 459H100L116 556H280Z" horiz-adv-x="587" unicode="†"/>
			<glyph d="M304 708H424L400 556H566L550 459H385L364 330H530L515 233H349L312 0H192L229 233H65L80 330H244L265 459H100L116 556H280Z" horiz-adv-x="587" unicode="‡"/>
			<glyph d="M198 455Q317 455 317 336Q317 220 198 220Q80 220 80 336Q80 455 198 455Z" horiz-adv-x="373" unicode="•"/>
			<glyph d="M406 136Q469 136 469 80Q469 40 448 15T385 -9Q322 -9 322 46Q322 87 342 111T406 136ZM692 136Q755 136 755 80Q755 40 734 15T671 -9Q608 -9 608 46Q608 87 628 111T692 136ZM118 136Q181 136 181 80Q181 40 160 15T97 -9Q34 -9 34 46Q34 87 54 111T118 136Z" horiz-adv-x="850" unicode="…"/>
			<glyph d="M363 723Q452 723 504 673T557 543Q557 474 524 417T434 326T307 293Q218 293 164 341T110 471Q110 492 112 503Q120 565 154 615T242 694T363 723ZM806 709H921L394 0H279ZM353 626Q292 626 258 583T225 480Q225 439 247 414T315 390Q374 390 407 431T441 535Q441 576 419 601T353 626ZM937 419Q1026 419 1078 369T1131 239Q1131 170 1098 113T1008 22T881 -11Q792 -11 738 37T684 167Q684 188 686 199Q694 261 728 311T816 390T937 419ZM1419 419Q1508 419 1560 369T1613 239Q1613 170 1580 113T1490 22T1363 -11Q1274 -11 1220 37T1166 167Q1166 188 1168 199Q1176 261 1210 311T1298 390T1419 419ZM927 322Q866 322 832 279T799 176Q799 135 821 110T889 86Q948 86 981 127T1015 231Q1015 272 993 297T927 322ZM1409 322Q1348 322 1314 279T1281 176Q1281 135 1303 110T1371 86Q1430 86 1463 127T1497 231Q1497 272 1475 297T1409 322Z" horiz-adv-x="1761" unicode="‰"/>
			<glyph d="M256 532L303 484L174 341L257 198L199 157L80 320L87 367Z" horiz-adv-x="338" unicode="‹"/>
			<glyph d="M166 532L284 367L277 320L108 157L62 205L192 348L106 491Z" horiz-adv-x="338" unicode="›"/>
			<glyph d="M336 709H451L-76 0H-191Z" horiz-adv-x="231" unicode="⁄"/>
			<glyph d="M338 722Q437 722 489 667T541 513Q541 480 535 444Q515 317 444 247T262 177Q163 177 110 232T58 386Q58 418 64 454Q84 581 155 651T338 722ZM333 625Q266 625 230 580T179 444Q173 408 173 379Q173 326 195 300T269 274Q334 274 370 319T422 454Q428 490 428 519Q428 572 405 598T333 625Z" horiz-adv-x="540" unicode="⁰"/>
			<glyph d="M288 708H412L199 390H333L352 514H463L443 390H514L499 295H428L412 191H302L318 295H53L65 380Z" horiz-adv-x="540" unicode="⁴"/>
			<glyph d="M176 708H518L504 613H271L252 502Q295 521 346 521Q415 521 456 482T498 378Q498 315 466 269T380 200T256 177Q188 177 141 197T57 257L126 322Q154 296 183 284T258 273Q311 273 345 300T380 373Q380 401 359 416T303 431Q274 431 253 426T208 410L130 411Z" horiz-adv-x="540" unicode="⁵"/>
			<glyph d="M377 722Q455 722 512 687L461 610Q426 631 374 631Q314 631 273 598T214 502Q244 520 276 528T348 536Q418 536 460 497T502 395Q502 332 472 282T388 205T269 177Q174 177 125 227T77 366Q77 392 82 429Q103 563 181 642T377 722ZM317 449Q257 449 195 409Q190 376 190 356Q190 311 210 291T272 271Q325 271 356 305T387 390Q387 449 317 449Z" horiz-adv-x="540" unicode="⁶"/>
			<glyph d="M143 708H538L525 616Q427 528 361 418T270 191H140Q177 322 238 423T387 614L128 612Z" horiz-adv-x="540" unicode="⁷"/>
			<glyph d="M336 722Q417 722 466 689T516 602Q516 518 410 464Q456 444 478 416T500 347Q500 292 466 253T379 196T261 177Q199 177 154 195T85 245T62 314Q62 368 95 402T190 465Q159 484 143 509T127 561Q127 612 156 648T234 703T336 722ZM332 639Q295 639 268 620T242 568Q242 525 304 504L325 496Q401 542 401 593Q401 614 383 626T332 639ZM274 429Q230 412 206 385T182 324Q182 295 205 280T269 266Q320 266 352 288T384 347Q384 369 366 384T307 416Z" horiz-adv-x="540" unicode="⁸"/>
			<glyph d="M334 722Q427 722 475 673T523 538Q523 512 518 474Q495 333 392 257T110 181L121 275Q228 275 296 308T388 405Q358 385 325 376T253 367Q185 367 141 406T97 511Q97 572 128 620T214 695T334 722ZM328 629Q276 629 244 597T212 518Q212 488 232 471T286 454Q353 454 405 498Q410 531 410 549Q410 592 390 610T328 629Z" horiz-adv-x="540" unicode="⁹"/>
			<glyph d="M281 628H375L359 525H461L448 439H345L329 336H235L251 439H148L161 525H265Z" horiz-adv-x="540" unicode="⁺"/>
			<glyph d="M162 526H462L448 439H148Z" horiz-adv-x="540" unicode="⁻"/>
			<glyph d="M174 603H474L461 516H161ZM149 445H449L435 358H135Z" horiz-adv-x="540" unicode="⁼"/>
			<glyph d="M391 809L454 761Q376 665 336 567T297 359Q297 238 349 131L278 89Q182 230 182 376Q182 494 238 603T391 809Z" horiz-adv-x="528" unicode="⁽"/>
			<glyph d="M311 809Q407 668 407 522Q407 404 350 295T198 89L135 137Q213 234 252 331T292 539Q292 658 239 767Z" horiz-adv-x="528" unicode="⁾"/>
			<glyph d="M287 401Q386 401 438 346T490 192Q490 159 484 123Q464 -4 393 -74T211 -144Q112 -144 59 -89T7 65Q7 97 13 133Q33 260 104 330T287 401ZM282 304Q215 304 179 259T128 123Q122 87 122 58Q122 5 144 -21T218 -47Q283 -47 319 -1T371 133Q377 169 377 198Q377 251 354 277T282 304Z" horiz-adv-x="540" unicode="₀"/>
			<glyph d="M276 387H380L313 -35H420L405 -130H40L55 -36H198L248 271L109 214L78 296Z" horiz-adv-x="540" unicode="₁"/>
			<glyph d="M284 400Q370 400 416 358T462 254Q462 197 431 151T350 67T198 -37L431 -35L416 -130H23L36 -40Q60 -23 79 -9T115 16Q200 76 243 109T315 177T343 245Q343 274 324 290T269 306Q233 306 202 291T137 247L71 313Q117 357 167 378T284 400Z" horiz-adv-x="540" unicode="₂"/>
			<glyph d="M287 401Q371 401 416 365T462 273Q462 262 461 256Q448 160 349 140L345 139Q387 133 414 108T442 38Q442 -13 414 -54T331 -120T202 -144Q135 -144 89 -123T9 -64L77 -1Q105 -27 134 -38T207 -49Q258 -49 292 -25T326 42Q326 67 308 79T252 91H159L172 181H248Q294 181 320 201T346 261Q346 285 327 296T271 307Q205 307 136 261L84 331Q131 367 181 384T287 401Z" horiz-adv-x="540" unicode="₃"/>
			<glyph d="M237 387H361L148 69H282L301 193H412L392 69H463L448 -26H377L361 -130H251L267 -26H2L14 59Z" horiz-adv-x="540" unicode="₄"/>
			<glyph d="M125 387H467L453 292H220L201 181Q244 200 295 200Q364 200 405 161T447 57Q447 -6 415 -51T329 -120T205 -144Q137 -144 90 -123T6 -64L75 1Q103 -25 132 -36T207 -48Q260 -48 294 -21T329 52Q329 80 308 95T252 110Q223 110 202 105T157 89L79 90Z" horiz-adv-x="540" unicode="₅"/>
			<glyph d="M326 401Q404 401 461 366L410 289Q375 310 323 310Q263 310 222 277T163 181Q193 199 225 207T297 215Q367 215 409 176T451 74Q451 11 421 -38T337 -116T218 -144Q123 -144 74 -93T26 45Q26 71 31 108Q52 242 130 321T326 401ZM266 128Q206 128 144 88Q139 55 139 35Q139 -10 159 -30T221 -50Q274 -50 305 -16T336 69Q336 128 266 128Z" horiz-adv-x="540" unicode="₆"/>
			<glyph d="M92 387H487L474 295Q376 207 310 97T219 -130H89Q126 1 187 102T336 293L77 291Z" horiz-adv-x="540" unicode="₇"/>
			<glyph d="M285 401Q366 401 415 368T465 281Q465 197 359 143Q405 123 427 95T449 26Q449 -29 415 -67T328 -125T210 -144Q148 -144 103 -125T34 -76T11 -7Q11 47 44 81T139 144Q108 163 92 188T76 240Q76 291 105 327T183 382T285 401ZM281 318Q244 318 217 299T191 247Q191 204 253 183L274 175Q350 221 350 272Q350 293 332 305T281 318ZM223 108Q179 91 155 64T131 3Q131 -26 154 -40T218 -55Q269 -55 301 -33T333 26Q333 48 315 63T256 95Z" horiz-adv-x="540" unicode="₈"/>
			<glyph d="M284 401Q377 401 425 352T473 217Q473 191 468 153Q445 12 342 -64T60 -140L71 -46Q178 -46 246 -13T338 84Q308 64 275 55T203 46Q135 46 91 85T47 190Q47 251 78 299T164 374T284 401ZM278 308Q226 308 194 276T162 197Q162 167 182 150T236 133Q303 133 355 177Q360 210 360 228Q360 271 340 289T278 308Z" horiz-adv-x="540" unicode="₉"/>
			<glyph d="M227 287H321L305 184H407L394 98H291L275 -5H181L197 98H94L107 184H211Z" horiz-adv-x="540" unicode="₊"/>
			<glyph d="M108 185H408L394 98H94Z" horiz-adv-x="540" unicode="₋"/>
			<glyph d="M120 262H420L407 175H107ZM95 104H395L381 17H81Z" horiz-adv-x="540" unicode="₌"/>
			<glyph d="M340 488L403 440Q325 344 285 246T246 38Q246 -83 298 -190L227 -232Q131 -91 131 55Q131 173 187 282T340 488Z" horiz-adv-x="528" unicode="₍"/>
			<glyph d="M260 488Q356 347 356 201Q356 83 299 -26T147 -232L84 -184Q162 -87 201 10T241 218Q241 337 188 446Z" horiz-adv-x="528" unicode="₎"/>
			<glyph d="M450 729Q517 729 570 706T660 643L588 570Q531 621 447 621Q377 621 326 581T246 473H520L508 387H220Q214 362 211 334H449L435 248H207Q209 171 243 132T352 93Q397 93 439 112T514 161L572 77Q529 34 468 8T340 -17Q218 -17 153 51T87 248H0L13 334H91Q93 355 99 387H26L39 473H122Q164 590 248 659T450 729Z" unicode="€"/>
			<glyph d="M119 708H633L620 625H452Q489 599 502 561H610L597 478H510Q503 398 455 344T329 265L459 0H327L213 242H46L60 336H214Q294 336 335 374T383 478H83L96 561H374Q347 620 261 620H105Z" unicode="₹"/>
			<glyph d="M210 708H334L304 524L453 589L459 498L288 424L282 386L431 451L437 360L266 285L237 108Q348 108 399 144T463 258H575Q555 126 471 63T228 0H98L134 228L10 174L4 265L150 329L156 366L32 312L26 403L172 467Z" unicode="₺"/>
			<glyph d="M171 708H389Q491 708 553 661T616 525Q616 411 539 349T334 287H227L217 222H427L413 136H203L182 0H59L81 136H24L37 222H94L104 287H49L62 373H118ZM278 609L241 373H331Q405 373 448 413T491 519Q491 565 459 587T374 609Z" unicode="₽"/>
			<glyph d="M332 726Q391 726 425 696T459 616Q459 528 396 451T226 298L204 163Q201 144 201 133Q201 107 214 95T256 83Q282 83 305 90L313 2Q265 -14 225 -14Q156 -14 117 20T79 115Q79 131 82 150L93 220L34 181L12 235L105 294L147 558Q160 642 212 684T332 726ZM334 659Q283 659 271 579L241 395Q303 449 336 503T369 618Q369 659 334 659Z" horiz-adv-x="443" unicode="ℓ"/>
			<glyph d="M467 726Q586 726 672 678T804 545T850 354Q850 247 804 162T672 30T467 -18Q347 -18 260 30T128 162T83 354Q83 461 128 545T260 678T467 726ZM466 647Q319 647 245 566T172 354Q172 222 245 141T466 61Q613 61 686 141T760 354Q760 486 686 566T466 647ZM318 559H478Q557 559 603 524T649 419Q649 348 601 310T478 273H406V152H318ZM406 486V345H475Q560 345 560 418Q560 454 537 470T476 486Z" horiz-adv-x="932" unicode="℗"/>
			<glyph d="M222 718Q270 718 312 707T386 672L342 600Q289 631 229 631Q161 631 161 595Q161 580 168 571T196 556T260 542Q391 515 391 414Q391 344 339 307T202 271Q102 271 32 320L76 393Q105 376 132 367T191 359Q273 359 273 402Q273 418 265 427T240 442T183 458Q113 473 82 504T51 590Q51 650 96 684T222 718ZM447 708H608L699 421H701L796 708H958V283H849L852 589H851L741 283H654L548 589H547L550 283H447Z" horiz-adv-x="1016" unicode="℠"/>
			<glyph d="M67 708H255V657H192V492H129V657H67ZM273 708H366L414 567H416L466 708H556V492H493L495 644H493L437 492H388L332 644H330L332 492H273Z" horiz-adv-x="568" unicode="™"/>
			<glyph d="M463 726Q558 726 627 689T732 585T769 430Q769 324 722 238T592 103H722L706 0H412L428 101L425 104Q493 121 541 169T614 284T639 427Q639 517 593 567T456 618Q372 618 310 573T215 453T182 289Q182 218 213 169T307 103H313L297 0H3L19 103H153Q55 172 55 305Q55 421 107 517T253 670T463 726Z" horiz-adv-x="790" unicode="Ω"/>
			<glyph d="M450 683Q588 683 673 631T795 500T832 330H215Q210 330 210 325V149Q210 129 217 121Q255 73 314 47T449 22Q525 22 584 50T698 130H765Q706 60 636 28T452 -3Q335 -3 248 42T115 164T70 332Q70 423 116 504T249 634T450 683ZM447 659Q387 659 327 635T219 562Q210 553 210 536V355Q210 350 215 350H687Q692 350 692 355V535Q692 548 682 560Q639 614 574 636T447 659Z" horiz-adv-x="902" unicode="℮"/>
			<glyph d="M251 726Q357 726 434 686T552 573T594 400Q594 363 586 315Q563 162 483 74T272 -14Q195 -14 140 13T56 88T27 201Q27 285 62 351T161 455T304 492Q361 492 401 475T473 423Q470 529 408 584T231 636ZM319 398Q239 398 195 341T152 199Q152 145 182 117T272 89Q349 89 396 149T461 325Q432 361 399 379T319 398Z" unicode="∂"/>
			<glyph d="M340 708H471L631 0H-43ZM388 582L141 99H481Z" horiz-adv-x="671" unicode="∆"/>
			<glyph d="M28 708H684V612H590V-120H472V612H241V-120H123V612H28Z" horiz-adv-x="713" unicode="∏"/>
			<glyph d="M53 708H553V607H202L391 322V278H392L181 -15H566V-120H45V-14L265 299H264L53 609Z" unicode="∑"/>
			<glyph d="M110 341H501L486 245H95Z" horiz-adv-x="587" unicode="−"/>
			<glyph d="M336 709H451L-76 0H-191Z" horiz-adv-x="231" unicode="∕"/>
			<glyph d="M322 420Q385 420 385 364Q385 324 364 299T301 275Q238 275 238 330Q238 371 258 395T322 420Z" horiz-adv-x="600" unicode="∙"/>
			<glyph d="M463 708H585L373 -120H220L93 219H24V319H181L293 8Z" unicode="√"/>
			<glyph d="M291 528Q352 528 395 499T468 409Q516 473 565 500T685 528Q770 528 813 479T857 354Q857 284 829 226T749 136T629 103Q567 103 523 132T449 223Q402 162 350 132T235 103Q149 103 104 152T60 277Q60 348 88 405T169 495T291 528ZM300 436Q239 436 206 390T173 278Q173 237 194 216T252 196Q300 196 333 226T413 327Q392 378 368 407T300 436ZM666 435Q632 435 606 421T558 380T503 304Q524 253 548 224T616 195Q677 195 711 241T745 353Q745 394 724 414T666 435Z" horiz-adv-x="900" unicode="∞"/>
			<glyph d="M482 726Q522 726 557 715L525 627Q512 631 498 631Q457 631 436 606T409 535L313 -73Q298 -164 251 -211T120 -258Q77 -258 45 -245L76 -159Q89 -163 107 -163Q147 -163 166 -138T194 -66L290 542Q304 632 350 679T482 726Z" unicode="∫"/>
			<glyph d="M502 443L554 404Q488 305 400 305Q371 305 350 313T303 338Q281 351 268 357T240 363Q218 363 196 349T141 303L89 342Q155 441 243 441Q272 441 293 432T340 408Q360 396 373 390T403 384Q426 384 448 397T502 443ZM475 269L527 230Q461 131 373 131Q344 131 323 139T276 164Q254 177 241 183T213 189Q191 189 169 175T114 129L62 168Q128 267 216 267Q245 267 266 258T313 234Q333 222 346 216T376 210Q399 210 421 223T475 269Z" unicode="≈"/>
			<glyph d="M477 583L551 539L475 438H528L513 341H401L323 238H496L481 141H250L130 -17L56 27L142 141H90L105 238H216L294 341H122L137 438H367Z" unicode="≠"/>
			<glyph d="M503 632L542 552L236 376L486 200L427 128L119 333L132 424ZM81 96H481L466 0H66Z" unicode="≤"/>
			<glyph d="M222 632L530 427L517 337L146 128L107 208L413 384L164 560ZM78 96H478L463 0H63Z" unicode="≥"/>
			<glyph d="M248 708H361L565 354L361 0H248L46 354ZM303 614L163 354L303 94L447 354Z" unicode="◊"/>
			<glyph d="M390 722Q485 722 566 683Q614 722 697 722Q762 722 811 703L775 618Q745 627 717 627Q627 627 615 539L611 515H732L717 424H598L529 -9Q517 -83 492 -130T427 -208T320 -258L289 -166Q345 -147 371 -112T408 -10L477 424H255L187 -9Q175 -83 150 -130T85 -208T-22 -258L-53 -166Q3 -147 29 -112T66 -10L135 424H50L63 501L150 515L154 544Q168 628 227 675T390 722ZM389 628Q331 628 305 605T274 541L270 515H491L495 544Q502 581 511 606Q455 628 389 628Z" horiz-adv-x="693" unicode="ﬀ"/>
			<glyph d="M398 722Q491 722 577 675L532 592Q469 628 398 628Q335 628 307 605T274 541L270 515H589L507 0H387L455 424H255L187 -9Q175 -83 150 -130T85 -208T-22 -258L-53 -166Q3 -147 29 -112T66 -10L135 424H50L63 501L150 515L154 544Q168 628 229 675T398 722Z" horiz-adv-x="625" unicode="ﬁ"/>
			<glyph d="M415 722Q523 722 614 674L507 0H387L485 622Q443 628 412 628Q344 628 312 607T274 539L270 515H389L374 424H255L187 -9Q175 -83 150 -130T85 -208T-22 -258L-53 -166Q3 -147 29 -112T66 -10L135 424H50L63 501L150 515L154 544Q168 629 232 675T415 722Z" horiz-adv-x="625" unicode="ﬂ"/>
			<glyph d="M390 722Q447 722 493 709T582 675Q645 722 752 722Q845 722 931 675L886 592Q823 628 752 628Q689 628 661 605T628 541L624 515H943L861 0H741L809 424H609L541 -9Q529 -83 504 -130T439 -208T332 -258L301 -166Q357 -147 383 -112T420 -10L489 424H255L187 -9Q175 -83 150 -130T85 -208T-22 -258L-53 -166Q3 -147 29 -112T66 -10L135 424H50L63 501L150 515L154 544Q168 628 227 675T390 722ZM389 628Q331 628 305 605T274 541L270 515H504L508 544Q512 571 524 600Q462 628 389 628Z" horiz-adv-x="979" unicode="ﬃ"/>
			<glyph d="M390 722Q447 722 493 710T583 675Q649 722 767 722Q875 722 966 674L859 0H739L837 622Q795 628 764 628Q696 628 664 607T626 539L622 515H741L726 424H607L539 -9Q527 -83 502 -130T437 -208T330 -258L299 -166Q355 -147 381 -112T418 -10L487 424H255L187 -9Q175 -83 150 -130T85 -208T-22 -258L-53 -166Q3 -147 29 -112T66 -10L135 424H50L63 501L150 515L154 544Q168 628 227 675T390 722ZM389 628Q331 628 305 605T274 541L270 515H502L506 544Q510 574 523 601Q460 628 389 628Z" horiz-adv-x="977" unicode="ﬄ"/>
		</font>
</defs>
</svg>
