<?xml version="1.0" encoding="UTF-8"?>
<svg height="100%" width="100%" xmlns="http://www.w3.org/2000/svg">
	<defs>
		<font horiz-adv-x="610" id="web">
			<font-face alphabetic="0" ascent="992" descent="-290" font-family="" panose-1="2 11 8 5 2 2 2 2 2 3"/>
			<missing-glyph d="M49 718H561V0H49ZM99 667V50H511V667ZM308 609Q363 609 397 573T432 478Q432 444 419 418T369 358Q344 335 334 321T322 290T320 234H274L272 251Q272 300 283 327T331 391Q358 417 369 434T381 474Q381 515 359 537T305 559Q272 559 250 536T223 464L173 472Q179 541 215 575T308 609ZM271 184H327V117H271Z"/>
			<glyph d="" horiz-adv-x="269" unicode=" "/>
			<glyph d="M105 708H231V420L221 229H116L105 420ZM168 140Q208 140 225 119T243 65Q243 31 225 10T168 -10Q92 -10 92 65Q92 140 168 140Z" horiz-adv-x="336" unicode="!"/>
			<glyph d="M77 708H177L166 449H77ZM259 708H359L348 449H259Z" horiz-adv-x="437" unicode="&quot;"/>
			<glyph d="M287 648H385L344 490H504L545 648H643L602 490H713V411H581L536 237H646V159H515L474 0H375L417 159H257L216 0H117L159 159H47V237H179L225 411H114V490H246ZM323 411L278 237H437L483 411Z" horiz-adv-x="760" unicode="#"/>
			<glyph d="M262 752H365V679Q466 669 545 614L489 538Q447 562 408 574T320 587Q204 587 204 510Q204 483 216 467T255 441T335 419Q441 396 494 350T548 221Q548 141 497 93T365 33V-44H262V29Q196 33 147 51T61 100L123 176Q161 150 199 138T286 126Q423 126 423 218Q423 248 409 265T366 294T282 319Q178 345 130 386T82 504Q82 576 131 621T262 678Z" unicode="$"/>
			<glyph d="M292 723Q358 723 408 695T486 617T514 508Q514 446 486 396T408 319T292 292Q225 292 174 319T96 396T69 508Q69 569 96 618T174 695T292 723ZM759 709H875L456 0H341ZM293 624Q241 624 214 591T188 508Q188 456 214 424T293 392Q344 392 369 424T395 508Q395 559 369 591T293 624ZM929 420Q995 420 1045 392T1123 314T1151 205Q1151 143 1123 93T1045 16T929 -11Q862 -11 811 16T733 93T706 205Q706 266 733 315T811 392T929 420ZM930 321Q878 321 851 288T825 205Q825 153 851 121T930 89Q981 89 1006 121T1032 205Q1032 256 1006 288T930 321Z" horiz-adv-x="1220" unicode="%"/>
			<glyph d="M297 727Q392 727 446 681T500 561Q500 496 464 452T354 371L506 227Q533 286 548 357L653 337Q640 243 586 153L678 66L602 -16L517 65Q472 24 419 4T295 -16Q219 -16 162 10T74 83T44 189Q44 254 75 300T179 386Q135 429 115 467T95 557Q95 605 120 644T191 705T297 727ZM298 630Q261 630 241 610T222 558Q222 525 235 498T281 439Q336 469 356 495T376 558Q376 592 356 611T298 630ZM255 314Q212 287 195 261T179 196Q179 151 211 123T300 96Q385 96 439 139Z" horiz-adv-x="685" unicode="&amp;"/>
			<glyph d="M77 708H177L166 449H77Z" horiz-adv-x="255" unicode="'"/>
			<glyph d="M249 839L328 788Q264 688 227 584T191 354Q191 228 227 124T328 -80L249 -131Q163 -21 110 97T57 354Q57 493 110 611T249 839Z" horiz-adv-x="385" unicode="("/>
			<glyph d="M136 839Q222 729 275 611T328 354Q328 216 275 97T136 -131L57 -80Q121 20 157 124T194 354Q194 480 157 584T57 788Z" horiz-adv-x="385" unicode=")"/>
			<glyph d="M169 708H268L259 598L360 641L391 548L283 523L356 440L276 381L219 476L163 381L82 440L155 523L47 548L78 641L180 597Z" horiz-adv-x="438" unicode="*"/>
			<glyph d="M251 487H359V337H505V237H359V87H251V237H105V337H251Z" unicode="+"/>
			<glyph d="M144 140Q184 140 205 115T226 47Q226 -18 198 -72T95 -195L46 -150Q88 -108 108 -73T131 0Q98 6 83 23T69 69Q69 99 88 119T144 140Z" horiz-adv-x="293" unicode=","/>
			<glyph d="M40 340H279V240H40Z" horiz-adv-x="319" unicode="-"/>
			<glyph d="M142 140Q182 140 199 119T217 65Q217 31 199 10T142 -10Q66 -10 66 65Q66 140 142 140Z" horiz-adv-x="284" unicode="."/>
			<glyph d="M331 792H440L212 -88H103Z" horiz-adv-x="545" unicode="/"/>
			<glyph d="M304 727Q437 727 505 631T574 354Q574 172 505 76T304 -19Q172 -19 104 76T36 354Q36 536 104 631T304 727ZM305 617Q229 617 197 553T166 354Q166 217 197 154T305 92Q382 92 413 154T444 354Q444 489 412 553T305 617Z" unicode="0"/>
			<glyph d="M293 708H411V108H559V0H90V107H280V576L101 490L51 583Z" unicode="1"/>
			<glyph d="M292 726Q371 726 429 696T517 618T548 513Q548 445 520 392T428 278T225 108H567V0H55V100L72 115Q231 251 295 310T386 411T414 501Q414 554 378 586T281 619Q233 619 193 598T114 538L36 606Q89 665 148 695T292 726Z" unicode="2"/>
			<glyph d="M289 727Q364 727 419 701T502 632T531 535Q531 402 403 371V369Q468 361 510 320T553 202Q553 138 521 88T426 9T276 -19Q193 -19 132 7T19 84L88 161Q134 123 176 106T276 90Q340 90 380 121T420 209Q420 264 389 289T298 314H184V418H281Q338 418 370 442T402 518Q402 568 370 594T276 620Q187 620 107 557L40 632Q94 680 155 703T289 727Z" unicode="3"/>
			<glyph d="M246 708H384L165 262H369V444H495V262H582V154H495V0H370V154H19V251Z" unicode="4"/>
			<glyph d="M89 708H524V600H213V425Q271 448 344 448Q408 448 459 420T538 343T567 226Q567 152 533 96T435 11T286 -19Q201 -19 139 7T27 84L99 162Q145 123 186 107T286 91Q353 91 393 126T434 223Q434 281 399 313T307 346Q239 346 175 315H89Z" unicode="5"/>
			<glyph d="M356 727Q448 727 525 680L479 590Q420 623 358 623Q276 623 227 566T169 404Q207 437 251 453T351 469Q416 469 467 441T548 363T578 245Q578 169 546 109T453 15T310 -19Q174 -19 105 71T36 316Q36 440 73 532T183 676T356 727ZM322 370Q235 370 168 298Q170 192 204 140T311 89Q377 89 412 129T447 241Q447 304 413 337T322 370Z" unicode="6"/>
			<glyph d="M32 708H580V606Q456 476 386 323T307 0H159Q186 175 252 321T428 599H32Z" unicode="7"/>
			<glyph d="M306 727Q373 727 428 705T516 641T548 544Q548 441 433 374Q512 343 545 300T579 185Q579 128 546 81T450 8T303 -19Q219 -19 157 7T63 80T31 183Q31 252 65 296T173 374Q114 403 88 441T63 540Q63 594 95 636T183 703T306 727ZM306 631Q258 631 225 605T192 535Q192 498 216 471T294 424L334 410Q378 439 398 469T419 535Q419 580 387 605T306 631ZM270 336Q215 314 190 279T165 197Q165 142 202 113T306 84Q372 84 409 113T446 193Q446 225 434 246T395 283T320 318Z" unicode="8"/>
			<glyph d="M304 727Q437 727 505 639T574 397Q574 201 458 93T119 -14V93Q265 93 347 149T442 311Q362 244 262 244Q198 244 145 271T62 349T32 470Q32 543 64 601T159 693T304 727ZM303 621Q236 621 199 582T163 474Q163 410 198 376T292 343Q336 343 375 361T444 414Q442 523 409 572T303 621Z" unicode="9"/>
			<glyph d="M142 140Q182 140 199 119T217 65Q217 31 199 10T142 -10Q66 -10 66 65Q66 140 142 140ZM142 487Q182 487 199 466T217 412Q217 378 199 357T142 337Q66 337 66 412Q66 487 142 487Z" horiz-adv-x="284" unicode=":"/>
			<glyph d="M147 487Q187 487 204 466T222 412Q222 378 204 357T147 337Q71 337 71 412Q71 487 147 487ZM144 140Q184 140 205 115T226 47Q226 -18 198 -72T95 -195L46 -150Q88 -108 108 -73T131 0Q98 6 83 23T69 69Q69 99 88 119T144 140Z" horiz-adv-x="293" unicode=";"/>
			<glyph d="M448 538L499 459L225 284L498 110L447 30L111 234V330Z" unicode="&lt;"/>
			<glyph d="M105 240H505V140H105ZM105 440H505V340H105Z" unicode="="/>
			<glyph d="M162 538L499 330V234L163 30L112 110L385 284L111 459Z" unicode="&gt;"/>
			<glyph d="M256 726Q325 726 378 700T460 628T489 525Q489 480 471 446T428 389T363 336Q321 306 302 286T283 240V229H163V260Q163 305 188 334T264 399Q310 432 332 457T355 520Q355 565 325 592T246 619Q195 619 158 599T85 538L7 606Q54 665 114 695T256 726ZM223 140Q263 140 280 119T298 65Q298 31 280 10T223 -10Q147 -10 147 65Q147 140 223 140Z" horiz-adv-x="527" unicode="?"/>
			<glyph d="M493 682Q620 682 707 637T838 514T881 338Q881 219 834 150T708 82Q658 82 623 108T580 178Q527 84 421 84Q350 84 310 130T271 252Q271 322 297 379T377 471T512 506Q558 506 602 492T679 454L652 262Q650 240 650 233Q650 194 666 177T708 160Q777 160 777 336Q777 594 492 594Q389 594 319 553T217 441T184 283Q184 136 262 58T492 -20Q546 -20 597 -11T685 12L712 -69Q668 -87 610 -98T488 -109Q363 -109 270 -62T128 73T78 282Q78 392 129 483T274 628T493 682ZM506 427Q441 427 409 376T378 251Q378 169 445 169Q487 169 515 206T553 300L570 413Q540 427 506 427Z" horiz-adv-x="960" unicode="@"/>
			<glyph d="M269 708H404L675 0H533L479 153H191L134 0H-3ZM336 574L226 253H445Z" horiz-adv-x="673" unicode="A"/>
			<glyph d="M80 708H349Q451 708 512 666T573 531Q573 470 540 429T452 374V372Q522 362 562 318T603 201Q603 97 534 48T352 0H80ZM207 609V413H326Q383 413 413 438T443 515Q443 564 412 586T319 609ZM207 320V101H328Q392 101 430 127T469 213Q469 268 435 294T334 320Z" horiz-adv-x="643" unicode="B"/>
			<glyph d="M401 728Q475 728 541 704T650 638L576 554Q542 583 498 599T406 615Q290 615 235 544T180 355Q180 238 235 167T403 97Q456 97 501 116T580 168L659 82Q614 37 546 9T399 -19Q286 -19 206 28T85 160T44 355Q44 467 85 551T207 681T401 728Z" horiz-adv-x="678" unicode="C"/>
			<glyph d="M80 708H321Q501 708 599 621T697 355Q697 241 651 161T522 40T326 0H80ZM210 601V108H313Q436 108 499 168T562 355Q562 482 500 541T316 601Z" horiz-adv-x="740" unicode="D"/>
			<glyph d="M80 708H527V603H211V414H481V313H211V107H544V0H80Z" horiz-adv-x="568" unicode="E"/>
			<glyph d="M80 708H527V601H211V404H486V297H211V0H80Z" horiz-adv-x="543" unicode="F"/>
			<glyph d="M404 727Q478 727 544 703T653 637L579 553Q545 582 500 598T409 615Q292 615 235 544T178 355Q178 90 407 90Q481 90 549 119V277H404V377H670V48Q550 -19 405 -19Q288 -19 207 28T85 159T44 355Q44 466 86 550T210 680T404 727Z" horiz-adv-x="742" unicode="G"/>
			<glyph d="M80 708H211V416H538V708H670V0H538V311H211V0H80Z" horiz-adv-x="749" unicode="H"/>
			<glyph d="M48 708H342V612H259V99H342V0H48V99H131V612H48Z" horiz-adv-x="390" unicode="I"/>
			<glyph d="M223 708H354V211Q354 148 330 96T258 12T136 -19Q59 -19 3 17L51 114Q65 105 85 99T127 94Q223 94 223 210Z" horiz-adv-x="426" unicode="J"/>
			<glyph d="M80 708H211V417L489 708H645L339 387L670 0H507L253 296L211 253V0H80Z" horiz-adv-x="660" unicode="K"/>
			<glyph d="M80 708H211V109H517V0H80Z" horiz-adv-x="521" unicode="L"/>
			<glyph d="M80 708H272L465 180H467L665 708H858V0H730L733 557H731L513 0H415L200 557H198L202 0H80Z" horiz-adv-x="938" unicode="M"/>
			<glyph d="M80 708H229L579 180H581L578 708H699V0H550L200 529H198L202 0H80Z" horiz-adv-x="779" unicode="N"/>
			<glyph d="M406 727Q519 727 601 680T726 549T769 354Q769 243 726 158T601 27T406 -19Q293 -19 211 27T87 158T44 354Q44 465 87 549T211 680T406 727ZM406 614Q293 614 235 544T178 354Q178 234 235 164T406 94Q520 94 577 164T635 354Q635 474 577 544T406 614Z" horiz-adv-x="812" unicode="O"/>
			<glyph d="M80 708H335Q455 708 528 649T602 471Q602 392 565 337T467 255T335 229H211V0H80ZM210 603V335H323Q385 335 427 368T469 470Q469 541 428 572T324 603Z" horiz-adv-x="628" unicode="P"/>
			<glyph d="M406 727Q519 727 600 680T725 549T768 354Q768 207 693 109T485 -12Q503 -41 529 -58T598 -83T713 -91V-198Q598 -198 526 -178T413 -118T345 -15Q250 -3 182 46T79 174T44 354Q44 465 87 549T211 680T406 727ZM406 614Q293 614 235 544T178 354Q178 234 235 164T406 94Q519 94 576 164T634 354Q634 474 576 544T406 614Z" horiz-adv-x="812" unicode="Q"/>
			<glyph d="M80 708H328Q447 708 521 646T595 471Q595 321 452 266L621 0H471L331 240H211V0H80ZM210 603V340H321Q382 340 421 372T460 471Q460 538 420 570T319 603Z" horiz-adv-x="653" unicode="R"/>
			<glyph d="M299 725Q429 725 528 655L469 570Q427 596 387 608T302 620Q246 620 212 598T179 534Q179 490 213 467T326 424Q430 397 485 346T540 200Q540 128 504 78T406 5T270 -19Q199 -19 137 2T26 64L89 147Q130 117 173 104T269 91Q331 91 368 117T406 195Q406 233 388 255T336 292T244 322Q148 347 98 395T49 526Q49 589 82 634T171 702T299 725Z" horiz-adv-x="575" unicode="S"/>
			<glyph d="M4 708H561V598H348V0H217V598H4Z" horiz-adv-x="565" unicode="T"/>
			<glyph d="M72 708H203V266Q203 180 241 137T369 94Q458 94 496 137T535 266V708H666V256Q666 126 588 53T369 -19Q228 -19 150 53T72 256Z" horiz-adv-x="738" unicode="U"/>
			<glyph d="M-6 708H135L329 149H333L523 708H662L391 0H263Z" horiz-adv-x="656" unicode="V"/>
			<glyph d="M7 708H142L281 174H284L434 708H567L718 174H721L863 708H992L788 0H659L500 540H497L341 0H211Z" horiz-adv-x="1000" unicode="W"/>
			<glyph d="M23 708H174L323 457L472 708H620L400 373L646 0H493L320 282L149 0H-4L243 373Z" horiz-adv-x="643" unicode="X"/>
			<glyph d="M-18 708H132L301 407H303L470 708H615L362 301V0H231V303Z" horiz-adv-x="598" unicode="Y"/>
			<glyph d="M44 708H546V605L189 109H555V0H32V111L386 603H44Z" horiz-adv-x="595" unicode="Z"/>
			<glyph d="M73 819H311V722H192V-23H311V-119H73Z" horiz-adv-x="385" unicode="["/>
			<glyph d="M104 792H213L441 -88H332Z" horiz-adv-x="545" unicode="\"/>
			<glyph d="M74 819H312V-119H74V-23H193V722H74Z" horiz-adv-x="385" unicode="]"/>
			<glyph d="M257 708H353L512 517L454 470L305 631L156 470L98 517Z" unicode="^"/>
			<glyph d="M49 -101H561V-201H49Z" unicode="_"/>
			<glyph d="M90 771L261 633L215 567L30 683Z" horiz-adv-x="291" unicode="`"/>
			<glyph d="M269 534Q388 534 441 480T494 317V119Q494 81 503 0H388Q381 41 379 59H376Q348 22 309 4T206 -14Q134 -14 86 27T38 146Q38 248 110 288T319 328Q352 328 369 327V353Q369 437 262 437Q185 437 111 397L69 480Q111 505 164 519T269 534ZM332 244Q244 244 206 223T168 155Q168 121 188 102T242 84Q279 84 308 100T353 143T370 201V243Z" horiz-adv-x="569" unicode="a"/>
			<glyph d="M78 708H203V463H206Q259 534 366 534Q477 534 534 457T591 261Q591 184 562 121T477 22T341 -14Q258 -14 189 40L181 0H78ZM339 434Q280 434 241 393T203 293V127Q234 106 262 95T324 85Q392 85 427 132T462 261Q462 345 429 389T339 434Z" horiz-adv-x="636" unicode="b"/>
			<glyph d="M310 534Q408 534 484 478L437 391Q377 430 311 430Q240 430 205 385T170 261Q170 184 205 137T309 91Q370 91 438 131L483 42Q444 15 397 0T299 -14Q204 -14 147 28T67 132T44 261Q44 344 76 405T168 500T310 534Z" horiz-adv-x="511" unicode="c"/>
			<glyph d="M432 708H557V119Q557 72 565 0H449Q442 39 441 65H439Q410 25 368 5T264 -14Q154 -14 99 61T44 257Q44 334 73 397T156 497T285 534Q374 534 432 482ZM304 433Q242 433 208 385T174 257Q174 174 207 129T298 85Q357 85 394 124T432 227V379Q381 433 304 433Z" horiz-adv-x="635" unicode="d"/>
			<glyph d="M295 534Q413 534 474 460T535 261Q535 237 532 214H170Q178 152 214 118T315 85Q359 85 392 96T464 132L518 52Q473 19 421 2T307 -14Q225 -14 166 20T75 116T44 260Q44 384 109 459T295 534ZM294 440Q236 440 204 402T169 308H412Q410 366 380 403T294 440Z" horiz-adv-x="579" unicode="e"/>
			<glyph d="M293 722Q349 722 397 705L367 616Q343 623 312 623Q225 623 225 539V515H348V420H225V0H100V420H15V500L100 515V543Q100 627 147 674T293 722Z" horiz-adv-x="357" unicode="f"/>
			<glyph d="M275 534Q304 534 325 530T372 520H561V421L456 438Q474 422 484 394T494 333Q494 253 436 208T275 163Q228 163 203 152T179 123Q179 106 202 96T275 86Q413 82 479 45T545 -67Q545 -159 469 -208T257 -257Q139 -257 77 -215T16 -96Q16 -14 108 41Q87 54 76 70T65 111Q65 139 84 161T137 193Q49 239 49 346Q49 433 109 483T275 534ZM271 443Q222 443 192 416T163 348Q163 303 190 276T271 250Q379 250 379 344Q379 389 352 416T271 443ZM192 -8Q137 -39 137 -89Q137 -164 260 -164Q339 -164 380 -142T421 -80Q421 -43 369 -26T192 -8Z" horiz-adv-x="581" unicode="g"/>
			<glyph d="M78 708H203V463H205Q262 534 372 534Q468 534 514 479T561 344V0H436V317Q436 367 411 398T330 430Q272 430 237 390T203 289V0H78Z" horiz-adv-x="634" unicode="h"/>
			<glyph d="M78 520H203V0H78ZM141 754Q182 754 200 734T218 682Q218 651 199 631T141 611Q100 611 82 631T64 682Q64 754 141 754Z" horiz-adv-x="282" unicode="i"/>
			<glyph d="M78 520H203V-64Q203 -157 160 -207T28 -258Q-11 -258 -45 -247L-22 -156Q-8 -159 11 -159Q49 -159 63 -136T78 -66ZM141 754Q182 754 200 734T218 682Q218 651 199 631T141 611Q100 611 82 631T64 682Q64 754 141 754Z" horiz-adv-x="282" unicode="j"/>
			<glyph d="M78 708H203V326L411 520H559L333 307L576 0H422L247 226L203 185V0H78Z" horiz-adv-x="572" unicode="k"/>
			<glyph d="M78 708H203V0H78Z" horiz-adv-x="282" unicode="l"/>
			<glyph d="M362 534Q478 534 526 448H528Q587 534 701 534Q766 534 809 505T873 431T894 332V0H769V314Q769 367 746 399T669 431Q612 431 580 387T549 282V0H423V324Q423 369 399 400T323 431Q267 431 235 390T203 289V0H78V401Q78 439 69 520H189Q195 488 197 461H199Q225 494 266 514T362 534Z" horiz-adv-x="966" unicode="m"/>
			<glyph d="M371 534Q436 534 478 507T541 437T561 344V0H436V317Q436 367 411 398T330 430Q271 430 237 390T203 289V0H78V401Q78 439 69 520H189Q195 489 197 460H199Q224 493 268 513T371 534Z" horiz-adv-x="633" unicode="n"/>
			<glyph d="M314 534Q399 534 460 500T553 405T585 262Q585 181 552 118T458 21T314 -14Q231 -14 170 21T76 119T44 262Q44 344 76 405T168 500T314 534ZM314 434Q240 434 207 387T174 262Q174 182 207 133T315 85Q389 85 423 133T457 262Q457 341 423 387T314 434Z" horiz-adv-x="630" unicode="o"/>
			<glyph d="M367 534Q442 534 492 497T566 399T591 261Q591 185 563 122T481 22T354 -14Q264 -14 203 36V-244H78V401Q78 439 69 520H189Q196 479 197 458H199Q259 534 367 534ZM338 434Q279 434 241 393T203 293V127Q234 106 262 95T324 85Q392 85 427 132T462 261Q462 345 429 389T338 434Z" horiz-adv-x="636" unicode="p"/>
			<glyph d="M283 534Q378 534 444 473L455 520H557V-244H432V54H430Q404 23 364 4T271 -14Q157 -14 100 62T44 259Q44 335 74 397T158 497T283 534ZM304 433Q243 433 208 386T174 259Q174 174 207 129T298 85Q356 85 394 124T432 227V379Q380 433 304 433Z" horiz-adv-x="636" unicode="q"/>
			<glyph d="M353 534Q371 534 385 530L380 422Q365 425 342 425Q276 425 239 382T203 273V0H78V401Q78 439 69 520H189Q196 478 197 448H199Q245 534 353 534Z" horiz-adv-x="392" unicode="r"/>
			<glyph d="M243 534Q347 534 421 479L371 400Q310 438 248 438Q208 438 186 424T164 386Q164 365 174 352T206 331T276 311Q352 292 390 254T429 156Q429 74 367 30T215 -14Q100 -14 23 45L77 123Q109 103 140 93T209 83Q252 83 275 99T299 147Q299 168 289 180T257 201T189 221Q112 240 75 277T39 378Q39 451 95 492T243 534Z" horiz-adv-x="461" unicode="s"/>
			<glyph d="M226 682V515H355V420H226V161Q226 87 293 87Q320 87 339 93L357 1Q319 -14 266 -14Q188 -14 144 28T101 149V420H15V500L100 515V638Z" horiz-adv-x="385" unicode="t"/>
			<glyph d="M72 520H198V219Q198 157 223 121T303 85Q362 85 396 128T431 238V520H556V119Q556 65 565 0H445Q438 36 437 61H435Q380 -14 269 -14Q172 -14 122 45T72 200Z" horiz-adv-x="634" unicode="u"/>
			<glyph d="M-2 520H134L261 127H264L388 520H519L329 0H192Z" horiz-adv-x="518" unicode="v"/>
			<glyph d="M9 520H141L227 139H229L343 520H473L588 139H590L678 520H805L660 0H524L406 384H404L289 0H154Z" horiz-adv-x="814" unicode="w"/>
			<glyph d="M27 520H171L287 345L401 520H538L363 272L566 0H416L282 194L153 0H5L205 272Z" horiz-adv-x="572" unicode="x"/>
			<glyph d="M-2 520H134L261 130H263L377 520H506L291 -104Q264 -183 220 -220T104 -257Q54 -257 15 -242L39 -149Q62 -156 85 -156Q121 -156 140 -136T175 -77L200 -4Z" horiz-adv-x="505" unicode="y"/>
			<glyph d="M40 520H426V427L181 98H437V0H29V99L271 426H40Z" horiz-adv-x="466" unicode="z"/>
			<glyph d="M334 819V719Q294 719 272 693T251 618V517Q251 461 242 429T212 380T147 351V349Q191 338 212 320T242 270T251 183V82Q251 32 272 6T334 -19V-119Q240 -119 184 -67T129 93V241Q129 271 113 283T51 298V402Q98 404 113 416T129 459V607Q129 715 186 767T334 819Z" horiz-adv-x="385" unicode="{"/>
			<glyph d="M125 808H237V-100H125Z" horiz-adv-x="362" unicode="|"/>
			<glyph d="M51 819Q141 819 198 767T256 607V459Q256 429 271 416T334 402V298Q287 296 271 283T256 241V93Q256 -16 200 -67T51 -119V-19Q91 -19 112 6T134 82V183Q134 239 142 270T172 320T238 349V351Q194 362 172 380T142 429T134 517V618Q134 668 112 693T51 719Z" horiz-adv-x="385" unicode="}"/>
			<glyph d="M221 356Q249 356 271 347T321 323Q344 310 358 304T390 298Q412 298 431 311T477 356L535 320Q481 216 391 216Q363 216 341 223T292 248Q271 261 255 267T221 274Q199 274 179 261T134 216L76 253Q130 356 221 356Z" unicode="~"/>
			<glyph d="" horiz-adv-x="269" unicode=" "/>
			<glyph d="M116 295H221L231 104V-184H105V104ZM168 534Q208 534 225 513T243 459Q243 425 225 404T168 384Q92 384 92 459Q92 534 168 534Z" horiz-adv-x="336" unicode="¡"/>
			<glyph d="M298 708H399V624Q467 614 525 573L478 487Q417 525 352 525Q279 525 244 480T210 355Q210 278 245 231T350 184Q411 184 479 224L524 137Q469 99 399 85V0H298V82Q183 96 134 176T85 355Q85 466 141 537T298 624Z" unicode="¢"/>
			<glyph d="M340 726Q469 726 551 637L472 565Q446 591 415 605T344 619Q296 619 271 594T246 522Q246 491 253 464T273 403H441V311H305Q311 287 311 261Q311 211 285 176T212 113V111H528V0H65V99Q122 134 149 172T177 263Q177 286 172 311H59V403H139Q126 436 119 464T112 525Q112 614 171 670T340 726Z" unicode="£"/>
			<glyph d="M151 534L221 436Q258 451 305 451Q352 451 389 436L459 534L533 478L455 388Q493 342 493 275Q493 208 454 160L533 69L459 13L388 112Q350 96 305 96Q260 96 222 112L151 13L77 69L156 161Q118 207 118 275Q118 342 155 387L77 478ZM305 377Q215 377 215 275Q215 225 237 197T305 170Q351 170 374 197T397 275Q397 324 374 350T305 377Z" unicode="¤"/>
			<glyph d="M10 708H152L302 405H304L451 708H588L398 371H506V287H359V242H506V158H359V0H235V158H93V242H235V287H93V371H197Z" horiz-adv-x="600" unicode="¥"/>
			<glyph d="M125 808H237V427H125ZM125 281H237V-100H125Z" horiz-adv-x="362" unicode="¦"/>
			<glyph d="M319 727Q427 727 502 672L451 594Q390 632 323 632Q291 632 272 620T254 586Q254 564 275 550T356 518Q437 492 473 458T509 370Q509 332 487 303T429 258Q506 218 506 142Q506 63 445 23T292 -16Q177 -16 100 43L154 121Q185 100 217 90T291 81Q332 81 354 94T376 134Q376 150 366 161T334 182T266 206Q187 230 151 260T116 344Q116 385 140 415T205 463Q129 506 129 580Q129 649 182 688T319 727ZM293 432Q265 418 251 400T238 359Q238 334 258 320T336 290Q362 305 373 322T384 359Q384 387 365 402T293 432Z" unicode="§"/>
			<glyph d="M97 726Q164 726 164 659Q164 592 97 592Q62 592 46 610T30 659Q30 689 46 707T97 726ZM300 726Q335 726 351 707T367 659Q367 629 351 610T300 592Q233 592 233 659Q233 726 300 726Z" horiz-adv-x="397" unicode="¨"/>
			<glyph d="M466 726Q585 726 671 678T803 545T849 354Q849 247 803 162T671 30T466 -18Q346 -18 259 30T126 162T81 354Q81 461 126 545T259 678T466 726ZM466 644Q319 644 246 565T174 354Q174 222 246 143T466 64Q611 64 683 143T756 354Q756 485 683 564T466 644ZM478 566Q558 566 615 524L579 457Q530 488 479 488Q423 488 396 453T369 358Q369 298 396 262T477 227Q528 227 580 257L615 190Q554 147 470 147Q361 147 315 211T269 358Q269 454 325 510T478 566Z" horiz-adv-x="931" unicode="©"/>
			<glyph d="M284 726Q398 726 448 675T499 519V330Q499 293 507 216H398Q391 255 389 272H386Q359 237 322 220T224 203Q155 203 109 242T63 355Q63 453 132 491T332 529Q363 529 379 528V553Q379 633 277 633Q204 633 133 595L93 674Q133 698 183 712T284 726ZM344 449Q260 449 223 429T187 364Q187 332 206 314T258 296Q293 296 321 312T364 353T380 408V448ZM79 100H529V0H79Z" horiz-adv-x="593" unicode="ª"/>
			<glyph d="M218 534L273 487L163 344L273 200L218 154L71 319V367ZM406 534L461 487L351 344L461 200L406 154L259 319V367Z" horiz-adv-x="532" unicode="«"/>
			<glyph d="M105 393H505V159H390V293H105Z" unicode="¬"/>
			<glyph d="M40 340H279V240H40Z" horiz-adv-x="319" unicode="­"/>
			<glyph d="M171 722Q230 722 264 688T298 600Q298 547 264 512T171 478Q112 478 78 512T44 600Q44 654 78 688T171 722ZM171 692Q124 692 101 667T79 600Q79 558 101 533T171 509Q217 509 240 533T263 600Q263 642 240 667T171 692ZM121 667H172Q197 667 211 656T226 624Q226 596 201 586L232 538H194L168 580H155V538H121ZM155 642V604H169Q193 604 193 623Q193 642 169 642Z" horiz-adv-x="341" unicode="®"/>
			<glyph d="M30 689H329V606H30Z" horiz-adv-x="359" unicode="¯"/>
			<glyph d="M186 727Q257 727 297 690T337 587Q337 521 297 483T186 446Q115 446 74 483T34 587Q34 654 74 690T186 727ZM185 656Q124 656 124 587Q124 518 185 518Q246 518 246 587Q246 656 185 656Z" horiz-adv-x="371" unicode="°"/>
			<glyph d="M251 577H359V427H505V327H359V177H251V327H105V427H251ZM105 100H505V0H105Z" unicode="±"/>
			<glyph d="M265 722Q327 722 371 700T439 641T462 561Q462 511 443 475T379 399T237 289H476V191H81V282L123 316Q225 398 265 433T323 494T341 549Q341 584 318 604T255 624Q219 624 191 610T134 567L63 628Q103 674 150 698T265 722Z" horiz-adv-x="540" unicode="²"/>
			<glyph d="M271 722Q331 722 374 703T440 652T463 580Q463 484 369 461V460Q418 453 449 423T480 339Q480 293 455 256T380 198T260 177Q194 177 146 196T59 255L122 325Q156 298 186 286T261 275Q304 275 331 293T359 346Q359 379 338 394T276 410H185V503H263Q304 503 324 517T345 564Q345 595 324 610T259 625Q193 625 135 581L75 649Q117 686 165 704T271 722Z" horiz-adv-x="540" unicode="³"/>
			<glyph d="M201 771L261 683L77 567L30 633Z" horiz-adv-x="291" unicode="´"/>
			<glyph d="M63 520H189V222Q189 160 214 124T294 88Q353 88 387 131T422 241V520H547V119Q547 65 556 0H436Q429 36 428 61H426Q401 27 364 6T283 -14Q217 -14 185 31H182V-130Q182 -190 170 -244H54Q63 -163 63 -125Z" unicode="µ"/>
			<glyph d="M265 708H386V-130H265V309H256Q149 309 87 360T25 508Q25 605 88 656T265 708ZM465 708H586V-130H465ZM249 608Q198 608 169 584T140 508Q140 457 169 433T249 409H265V608Z" horiz-adv-x="666" unicode="¶"/>
			<glyph d="M142 423Q182 423 199 402T217 348Q217 314 199 293T142 273Q66 273 66 348Q66 423 142 423Z" horiz-adv-x="284" unicode="·"/>
			<glyph d="M113 0H190L171 -54Q178 -53 192 -53Q229 -53 254 -75T279 -140Q279 -197 240 -223T145 -249Q75 -249 30 -224L59 -158Q95 -176 140 -176Q190 -176 190 -140Q190 -125 180 -117T155 -110Q140 -110 122 -114H69Z" horiz-adv-x="309" unicode="¸"/>
			<glyph d="M255 708H362V289H470V191H101V288H244V588L115 532L70 617Z" horiz-adv-x="540" unicode="¹"/>
			<glyph d="M324 726Q405 726 463 693T552 603T583 466Q583 389 552 329T462 236T324 203Q245 203 186 236T97 330T66 466Q66 545 96 603T185 693T324 726ZM324 630Q253 630 221 586T190 466Q190 390 222 343T325 297Q395 297 427 343T460 466Q460 542 427 586T324 630ZM108 100H558V0H108Z" horiz-adv-x="656" unicode="º"/>
			<glyph d="M126 534L273 367V319H274L126 154L72 200L181 344L71 487ZM314 534L461 367V319H462L314 154L260 200L369 344L259 487Z" horiz-adv-x="532" unicode="»"/>
			<glyph d="M203 708H310V289H418V191H49V288H192V588L63 532L18 617ZM771 709H887L468 0H353ZM904 517H1029L866 201H999V323H1114V201H1183V103H1114V0H1000V103H734V190Z" horiz-adv-x="1200" unicode="¼"/>
			<glyph d="M198 708H305V289H413V191H44V288H187V588L58 532L13 617ZM763 709H879L460 0H345ZM974 531Q1036 531 1080 509T1148 450T1171 370Q1171 320 1152 284T1088 208T946 98H1185V0H790V91L832 125Q934 207 974 242T1032 303T1050 358Q1050 393 1027 413T964 433Q928 433 900 419T843 376L772 437Q812 483 859 507T974 531Z" horiz-adv-x="1200" unicode="½"/>
			<glyph d="M227 722Q287 722 330 703T396 652T419 580Q419 484 325 461V460Q374 453 405 423T436 339Q436 293 411 256T336 198T216 177Q150 177 102 196T15 255L78 325Q112 298 142 286T217 275Q260 275 287 293T315 346Q315 379 294 394T232 410H141V503H219Q260 503 280 517T301 564Q301 595 280 610T215 625Q149 625 91 581L31 649Q73 686 121 704T227 722ZM771 709H887L468 0H353ZM906 517H1031L868 201H1001V323H1116V201H1185V103H1116V0H1002V103H736V190Z" horiz-adv-x="1200" unicode="¾"/>
			<glyph d="M244 295H364V264Q364 219 338 189T263 125Q217 92 194 66T172 4Q172 -41 201 -68T281 -95Q332 -95 369 -75T442 -14L520 -82Q473 -141 413 -171T271 -202Q202 -202 149 -176T67 -104T38 -1Q38 44 56 78T98 135T164 188Q206 218 225 238T244 284ZM304 534Q380 534 380 459Q380 384 304 384Q264 384 246 404T229 459Q229 493 246 513T304 534Z" horiz-adv-x="527" unicode="¿"/>
			<glyph d="M269 708H404L675 0H533L479 153H191L134 0H-3ZM336 574L226 253H445ZM261 948L446 827L406 762L209 856Z" horiz-adv-x="673" unicode="À"/>
			<glyph d="M269 708H404L675 0H533L479 153H191L134 0H-3ZM336 574L226 253H445ZM414 948L466 856L269 762L229 827Z" horiz-adv-x="673" unicode="Á"/>
			<glyph d="M269 708H404L675 0H533L479 153H191L134 0H-3ZM336 574L226 253H445ZM289 920H385L510 816L466 761L337 845L209 760L165 816Z" horiz-adv-x="673" unicode="Â"/>
			<glyph d="M269 708H404L675 0H533L479 153H191L134 0H-3ZM336 574L226 253H445ZM281 908Q300 908 314 901T348 882Q363 872 372 867T392 863Q423 863 448 906L510 881Q491 831 462 806T392 781Q373 781 358 787T328 806Q314 816 303 821T281 826Q251 826 226 783L164 808Q183 857 211 882T281 908Z" horiz-adv-x="673" unicode="Ã"/>
			<glyph d="M269 708H404L675 0H533L479 153H191L134 0H-3ZM336 574L226 253H445ZM241 919Q308 919 308 852Q308 785 241 785Q206 785 190 803T174 852Q174 882 190 900T241 919ZM444 919Q479 919 495 900T511 852Q511 822 495 803T444 785Q377 785 377 852Q377 919 444 919Z" horiz-adv-x="673" unicode="Ä"/>
			<glyph d="M336 869Q396 869 429 838T462 756Q462 728 451 705T420 667L675 0H533L479 153H191L134 0H-3L253 667Q233 682 222 705T211 756Q211 808 244 838T336 869ZM336 805Q294 805 294 756Q294 732 305 720T336 708Q356 708 367 720T378 756Q378 805 336 805ZM336 574L226 253H445Z" horiz-adv-x="673" unicode="Å"/>
			<glyph d="M269 708H824V603H444L510 414H790V313H545L618 107H876V0H520L471 153H190L134 0H-3ZM336 579L224 253H440Z" horiz-adv-x="893" unicode="Æ"/>
			<glyph d="M401 728Q475 728 541 704T650 638L576 554Q542 583 498 599T406 615Q290 615 235 544T180 355Q180 238 235 167T403 97Q456 97 501 116T580 168L659 82Q620 43 563 16T440 -17L427 -54Q434 -53 448 -53Q485 -53 510 -75T535 -140Q535 -197 496 -223T401 -249Q331 -249 286 -224L315 -158Q351 -176 396 -176Q446 -176 446 -140Q446 -125 436 -117T411 -110Q396 -110 378 -114H325L362 -18Q261 -10 189 39T81 169T44 355Q44 467 85 551T207 681T401 728Z" horiz-adv-x="678" unicode="Ç"/>
			<glyph d="M80 708H527V603H211V414H481V313H211V107H544V0H80ZM243 948L428 827L388 762L191 856Z" horiz-adv-x="568" unicode="È"/>
			<glyph d="M80 708H527V603H211V414H481V313H211V107H544V0H80ZM396 948L448 856L251 762L211 827Z" horiz-adv-x="568" unicode="É"/>
			<glyph d="M80 708H527V603H211V414H481V313H211V107H544V0H80ZM272 920H368L493 816L449 761L320 845L192 760L148 816Z" horiz-adv-x="568" unicode="Ê"/>
			<glyph d="M80 708H527V603H211V414H481V313H211V107H544V0H80ZM224 919Q291 919 291 852Q291 785 224 785Q189 785 173 803T157 852Q157 882 173 900T224 919ZM427 919Q462 919 478 900T494 852Q494 822 478 803T427 785Q360 785 360 852Q360 919 427 919Z" horiz-adv-x="568" unicode="Ë"/>
			<glyph d="M48 708H342V612H259V99H342V0H48V99H131V612H48ZM119 948L304 827L264 762L67 856Z" horiz-adv-x="390" unicode="Ì"/>
			<glyph d="M48 708H342V612H259V99H342V0H48V99H131V612H48ZM272 948L324 856L127 762L87 827Z" horiz-adv-x="390" unicode="Í"/>
			<glyph d="M48 708H342V612H259V99H342V0H48V99H131V612H48ZM147 920H243L368 816L324 761L195 845L67 760L23 816Z" horiz-adv-x="390" unicode="Î"/>
			<glyph d="M48 708H342V612H259V99H342V0H48V99H131V612H48ZM99 919Q166 919 166 852Q166 785 99 785Q64 785 48 803T32 852Q32 882 48 900T99 919ZM302 919Q337 919 353 900T369 852Q369 822 353 803T302 785Q235 785 235 852Q235 919 302 919Z" horiz-adv-x="390" unicode="Ï"/>
			<glyph d="M80 708H321Q501 708 599 621T697 355Q697 241 651 161T522 40T326 0H80V313H7V396H80ZM210 601V396H366V313H210V108H313Q436 108 499 168T562 355Q562 482 500 541T316 601Z" horiz-adv-x="740" unicode="Ð"/>
			<glyph d="M80 708H229L579 180H581L578 708H699V0H550L200 529H198L202 0H80ZM333 908Q352 908 366 901T400 882Q415 872 424 867T444 863Q475 863 500 906L562 881Q543 831 514 806T444 781Q425 781 410 787T380 806Q366 816 355 821T333 826Q303 826 278 783L216 808Q235 857 263 882T333 908Z" horiz-adv-x="779" unicode="Ñ"/>
			<glyph d="M406 727Q519 727 601 680T726 549T769 354Q769 243 726 158T601 27T406 -19Q293 -19 211 27T87 158T44 354Q44 465 87 549T211 680T406 727ZM406 614Q293 614 235 544T178 354Q178 234 235 164T406 94Q520 94 577 164T635 354Q635 474 577 544T406 614ZM329 948L514 827L474 762L277 856Z" horiz-adv-x="812" unicode="Ò"/>
			<glyph d="M406 727Q519 727 601 680T726 549T769 354Q769 243 726 158T601 27T406 -19Q293 -19 211 27T87 158T44 354Q44 465 87 549T211 680T406 727ZM406 614Q293 614 235 544T178 354Q178 234 235 164T406 94Q520 94 577 164T635 354Q635 474 577 544T406 614ZM482 948L534 856L337 762L297 827Z" horiz-adv-x="812" unicode="Ó"/>
			<glyph d="M406 727Q519 727 601 680T726 549T769 354Q769 243 726 158T601 27T406 -19Q293 -19 211 27T87 158T44 354Q44 465 87 549T211 680T406 727ZM406 614Q293 614 235 544T178 354Q178 234 235 164T406 94Q520 94 577 164T635 354Q635 474 577 544T406 614ZM358 920H454L579 816L535 761L406 845L278 760L234 816Z" horiz-adv-x="812" unicode="Ô"/>
			<glyph d="M406 727Q519 727 601 680T726 549T769 354Q769 243 726 158T601 27T406 -19Q293 -19 211 27T87 158T44 354Q44 465 87 549T211 680T406 727ZM406 614Q293 614 235 544T178 354Q178 234 235 164T406 94Q520 94 577 164T635 354Q635 474 577 544T406 614ZM350 908Q369 908 383 901T417 882Q432 872 441 867T461 863Q492 863 517 906L579 881Q560 831 531 806T461 781Q442 781 427 787T397 806Q383 816 372 821T350 826Q320 826 295 783L233 808Q252 857 280 882T350 908Z" horiz-adv-x="812" unicode="Õ"/>
			<glyph d="M406 727Q519 727 601 680T726 549T769 354Q769 243 726 158T601 27T406 -19Q293 -19 211 27T87 158T44 354Q44 465 87 549T211 680T406 727ZM406 614Q293 614 235 544T178 354Q178 234 235 164T406 94Q520 94 577 164T635 354Q635 474 577 544T406 614ZM310 919Q377 919 377 852Q377 785 310 785Q275 785 259 803T243 852Q243 882 259 900T310 919ZM513 919Q548 919 564 900T580 852Q580 822 564 803T513 785Q446 785 446 852Q446 919 513 919Z" horiz-adv-x="812" unicode="Ö"/>
			<glyph d="M198 465L305 359L410 464L481 394L375 288L481 182L411 111L305 218L198 111L127 181L234 288L128 394Z" unicode="×"/>
			<glyph d="M465 803L575 780L552 703Q656 664 712 572T769 354Q769 243 726 158T601 27T406 -19Q392 -19 366 -17L347 -99L238 -76L260 5Q157 43 100 134T44 354Q44 465 87 549T211 680T406 727Q421 727 447 725ZM406 615Q292 615 234 545T177 354Q177 168 296 114L426 614Q419 615 406 615ZM517 593L388 93H406Q520 93 577 163T635 354Q635 445 605 505T517 593Z" horiz-adv-x="812" unicode="Ø"/>
			<glyph d="M72 708H203V266Q203 180 241 137T369 94Q458 94 496 137T535 266V708H666V256Q666 126 588 53T369 -19Q228 -19 150 53T72 256ZM293 948L478 827L438 762L241 856Z" horiz-adv-x="738" unicode="Ù"/>
			<glyph d="M72 708H203V266Q203 180 241 137T369 94Q458 94 496 137T535 266V708H666V256Q666 126 588 53T369 -19Q228 -19 150 53T72 256ZM446 948L498 856L301 762L261 827Z" horiz-adv-x="738" unicode="Ú"/>
			<glyph d="M72 708H203V266Q203 180 241 137T369 94Q458 94 496 137T535 266V708H666V256Q666 126 588 53T369 -19Q228 -19 150 53T72 256ZM321 920H417L542 816L498 761L369 845L241 760L197 816Z" horiz-adv-x="738" unicode="Û"/>
			<glyph d="M72 708H203V266Q203 180 241 137T369 94Q458 94 496 137T535 266V708H666V256Q666 126 588 53T369 -19Q228 -19 150 53T72 256ZM273 919Q340 919 340 852Q340 785 273 785Q238 785 222 803T206 852Q206 882 222 900T273 919ZM476 919Q511 919 527 900T543 852Q543 822 527 803T476 785Q409 785 409 852Q409 919 476 919Z" horiz-adv-x="738" unicode="Ü"/>
			<glyph d="M-18 708H132L301 407H303L470 708H615L362 301V0H231V303ZM376 948L428 856L231 762L191 827Z" horiz-adv-x="598" unicode="Ý"/>
			<glyph d="M80 708H211V600H335Q454 600 527 542T601 369Q601 291 564 237T466 157T334 131H211V0H80ZM211 495V237H323Q385 237 427 270T469 368Q469 435 428 465T324 495Z" horiz-adv-x="633" unicode="Þ"/>
			<glyph d="M300 722Q363 722 417 699T523 635L436 420Q511 395 562 345T613 203Q613 129 578 80T493 8T390 -14Q318 -14 267 13L300 100Q338 85 375 85Q423 85 454 115T486 204Q486 268 446 301T326 349V422L394 601Q356 628 306 628Q225 628 225 540V0H100V420H15V500L100 514V542Q100 628 151 675T300 722Z" horiz-adv-x="642" unicode="ß"/>
			<glyph d="M269 534Q388 534 441 480T494 317V119Q494 81 503 0H388Q381 41 379 59H376Q348 22 309 4T206 -14Q134 -14 86 27T38 146Q38 248 110 288T319 328Q352 328 369 327V353Q369 437 262 437Q185 437 111 397L69 480Q111 505 164 519T269 534ZM332 244Q244 244 206 223T168 155Q168 121 188 102T242 84Q279 84 308 100T353 143T370 201V243ZM225 771L396 633L350 567L165 683Z" horiz-adv-x="569" unicode="à"/>
			<glyph d="M269 534Q388 534 441 480T494 317V119Q494 81 503 0H388Q381 41 379 59H376Q348 22 309 4T206 -14Q134 -14 86 27T38 146Q38 248 110 288T319 328Q352 328 369 327V353Q369 437 262 437Q185 437 111 397L69 480Q111 505 164 519T269 534ZM332 244Q244 244 206 223T168 155Q168 121 188 102T242 84Q279 84 308 100T353 143T370 201V243ZM350 771L410 683L226 567L179 633Z" horiz-adv-x="569" unicode="á"/>
			<glyph d="M269 534Q388 534 441 480T494 317V119Q494 81 503 0H388Q381 41 379 59H376Q348 22 309 4T206 -14Q134 -14 86 27T38 146Q38 248 110 288T319 328Q352 328 369 327V353Q369 437 262 437Q185 437 111 397L69 480Q111 505 164 519T269 534ZM332 244Q244 244 206 223T168 155Q168 121 188 102T242 84Q279 84 308 100T353 143T370 201V243ZM238 745H335V744L462 619L415 569L287 668L158 567L111 619Z" horiz-adv-x="569" unicode="â"/>
			<glyph d="M269 534Q388 534 441 480T494 317V119Q494 81 503 0H388Q381 41 379 59H376Q348 22 309 4T206 -14Q134 -14 86 27T38 146Q38 248 110 288T319 328Q352 328 369 327V353Q369 437 262 437Q185 437 111 397L69 480Q111 505 164 519T269 534ZM332 244Q244 244 206 223T168 155Q168 121 188 102T242 84Q279 84 308 100T353 143T370 201V243ZM231 715Q250 715 264 708T298 689Q313 679 322 674T342 670Q373 670 398 713L460 688Q441 638 412 613T342 588Q323 588 308 594T278 613Q264 623 253 628T231 633Q201 633 176 590L114 615Q133 664 161 689T231 715Z" horiz-adv-x="569" unicode="ã"/>
			<glyph d="M269 534Q388 534 441 480T494 317V119Q494 81 503 0H388Q381 41 379 59H376Q348 22 309 4T206 -14Q134 -14 86 27T38 146Q38 248 110 288T319 328Q352 328 369 327V353Q369 437 262 437Q185 437 111 397L69 480Q111 505 164 519T269 534ZM332 244Q244 244 206 223T168 155Q168 121 188 102T242 84Q279 84 308 100T353 143T370 201V243ZM185 726Q252 726 252 659Q252 592 185 592Q150 592 134 610T118 659Q118 689 134 707T185 726ZM388 726Q423 726 439 707T455 659Q455 629 439 610T388 592Q321 592 321 659Q321 726 388 726Z" horiz-adv-x="569" unicode="ä"/>
			<glyph d="M269 534Q388 534 441 480T494 317V119Q494 81 503 0H388Q381 41 379 59H376Q348 22 309 4T206 -14Q134 -14 86 27T38 146Q38 248 110 288T319 328Q352 328 369 327V353Q369 437 262 437Q185 437 111 397L69 480Q111 505 164 519T269 534ZM332 244Q244 244 206 223T168 155Q168 121 188 102T242 84Q279 84 308 100T353 143T370 201V243ZM286 799Q346 799 379 768T412 686Q412 636 379 604T287 573H286Q227 573 194 604T161 686Q161 738 194 768T286 799ZM286 735Q244 735 244 686Q244 662 255 650T286 638Q306 638 317 650T328 686Q328 735 286 735Z" horiz-adv-x="569" unicode="å"/>
			<glyph d="M268 534Q332 534 371 514T436 449Q466 491 510 512T607 534Q717 534 777 459T837 261Q837 237 834 214H484Q492 153 527 119T623 85Q663 85 695 96T765 132L820 52Q728 -14 615 -14Q546 -14 496 12T416 84Q382 36 336 11T229 -14Q143 -14 90 27T38 146Q38 248 109 288T309 328Q341 328 357 327V351Q357 394 333 415T261 437Q185 437 111 397L69 480Q111 505 164 519T268 534ZM604 440Q549 440 518 402T483 308H714Q712 366 684 403T604 440ZM323 244Q241 244 204 223T168 155Q168 121 188 102T245 84Q294 84 326 119T358 201V243Z" horiz-adv-x="880" unicode="æ"/>
			<glyph d="M310 534Q408 534 484 478L437 391Q377 430 311 430Q240 430 205 385T170 261Q170 184 205 137T309 91Q370 91 438 131L483 42Q418 -3 334 -12L319 -54Q326 -53 340 -53Q377 -53 402 -75T427 -140Q427 -197 388 -223T293 -249Q223 -249 178 -224L207 -158Q243 -176 288 -176Q338 -176 338 -140Q338 -125 328 -117T303 -110Q288 -110 270 -114H217L257 -12Q142 2 93 82T44 261Q44 344 76 405T168 500T310 534Z" horiz-adv-x="511" unicode="ç"/>
			<glyph d="M295 534Q413 534 474 460T535 261Q535 237 532 214H170Q178 152 214 118T315 85Q359 85 392 96T464 132L518 52Q473 19 421 2T307 -14Q225 -14 166 20T75 116T44 260Q44 384 109 459T295 534ZM294 440Q236 440 204 402T169 308H412Q410 366 380 403T294 440ZM239 771L410 633L364 567L179 683Z" horiz-adv-x="579" unicode="è"/>
			<glyph d="M295 534Q413 534 474 460T535 261Q535 237 532 214H170Q178 152 214 118T315 85Q359 85 392 96T464 132L518 52Q473 19 421 2T307 -14Q225 -14 166 20T75 116T44 260Q44 384 109 459T295 534ZM294 440Q236 440 204 402T169 308H412Q410 366 380 403T294 440ZM363 771L423 683L239 567L192 633Z" horiz-adv-x="579" unicode="é"/>
			<glyph d="M295 534Q413 534 474 460T535 261Q535 237 532 214H170Q178 152 214 118T315 85Q359 85 392 96T464 132L518 52Q473 19 421 2T307 -14Q225 -14 166 20T75 116T44 260Q44 384 109 459T295 534ZM294 440Q236 440 204 402T169 308H412Q410 366 380 403T294 440ZM251 745H348V744L475 619L428 569L300 668L171 567L124 619Z" horiz-adv-x="579" unicode="ê"/>
			<glyph d="M295 534Q413 534 474 460T535 261Q535 237 532 214H170Q178 152 214 118T315 85Q359 85 392 96T464 132L518 52Q473 19 421 2T307 -14Q225 -14 166 20T75 116T44 260Q44 384 109 459T295 534ZM294 440Q236 440 204 402T169 308H412Q410 366 380 403T294 440ZM198 726Q265 726 265 659Q265 592 198 592Q163 592 147 610T131 659Q131 689 147 707T198 726ZM401 726Q436 726 452 707T468 659Q468 629 452 610T401 592Q334 592 334 659Q334 726 401 726Z" horiz-adv-x="579" unicode="ë"/>
			<glyph d="M78 520H203V0H78ZM80 771L251 633L205 567L20 683Z" horiz-adv-x="282" unicode="ì"/>
			<glyph d="M78 520H203V0H78ZM204 771L264 683L80 567L33 633Z" horiz-adv-x="282" unicode="í"/>
			<glyph d="M78 520H203V0H78ZM92 745H189V744L316 619L269 569L141 668L12 567L-35 619Z" horiz-adv-x="282" unicode="î"/>
			<glyph d="M78 520H203V0H78ZM39 726Q106 726 106 659Q106 592 39 592Q4 592 -12 610T-28 659Q-28 689 -12 707T39 726ZM242 726Q277 726 293 707T309 659Q309 629 293 610T242 592Q175 592 175 659Q175 726 242 726Z" horiz-adv-x="282" unicode="ï"/>
			<glyph d="M220 727Q288 706 344 678L437 727L474 664L421 636Q500 587 546 505T592 321Q592 225 561 149T468 29T315 -14Q232 -14 170 18T76 107T44 239Q44 315 75 372T163 461T291 492Q342 492 381 479T453 438Q425 524 325 586L223 532L186 595L244 626Q219 636 171 651ZM305 395Q244 395 209 353T175 236Q175 167 211 130T314 93Q389 93 424 150T460 306V321Q427 357 390 376T305 395Z" horiz-adv-x="641" unicode="ð"/>
			<glyph d="M371 534Q436 534 478 507T541 437T561 344V0H436V317Q436 367 411 398T330 430Q271 430 237 390T203 289V0H78V401Q78 439 69 520H189Q195 489 197 460H199Q224 493 268 513T371 534ZM271 715Q290 715 304 708T338 689Q353 679 362 674T382 670Q413 670 438 713L500 688Q481 638 452 613T382 588Q363 588 348 594T318 613Q304 623 293 628T271 633Q241 633 216 590L154 615Q173 664 201 689T271 715Z" horiz-adv-x="633" unicode="ñ"/>
			<glyph d="M314 534Q399 534 460 500T553 405T585 262Q585 181 552 118T458 21T314 -14Q231 -14 170 21T76 119T44 262Q44 344 76 405T168 500T314 534ZM314 434Q240 434 207 387T174 262Q174 182 207 133T315 85Q389 85 423 133T457 262Q457 341 423 387T314 434ZM254 771L425 633L379 567L194 683Z" horiz-adv-x="630" unicode="ò"/>
			<glyph d="M314 534Q399 534 460 500T553 405T585 262Q585 181 552 118T458 21T314 -14Q231 -14 170 21T76 119T44 262Q44 344 76 405T168 500T314 534ZM314 434Q240 434 207 387T174 262Q174 182 207 133T315 85Q389 85 423 133T457 262Q457 341 423 387T314 434ZM379 771L439 683L255 567L208 633Z" horiz-adv-x="630" unicode="ó"/>
			<glyph d="M314 534Q399 534 460 500T553 405T585 262Q585 181 552 118T458 21T314 -14Q231 -14 170 21T76 119T44 262Q44 344 76 405T168 500T314 534ZM314 434Q240 434 207 387T174 262Q174 182 207 133T315 85Q389 85 423 133T457 262Q457 341 423 387T314 434ZM267 745H364V744L491 619L444 569L316 668L187 567L140 619Z" horiz-adv-x="630" unicode="ô"/>
			<glyph d="M314 534Q399 534 460 500T553 405T585 262Q585 181 552 118T458 21T314 -14Q231 -14 170 21T76 119T44 262Q44 344 76 405T168 500T314 534ZM314 434Q240 434 207 387T174 262Q174 182 207 133T315 85Q389 85 423 133T457 262Q457 341 423 387T314 434ZM260 715Q279 715 293 708T327 689Q342 679 351 674T371 670Q402 670 427 713L489 688Q470 638 441 613T371 588Q352 588 337 594T307 613Q293 623 282 628T260 633Q230 633 205 590L143 615Q162 664 190 689T260 715Z" horiz-adv-x="630" unicode="õ"/>
			<glyph d="M314 534Q399 534 460 500T553 405T585 262Q585 181 552 118T458 21T314 -14Q231 -14 170 21T76 119T44 262Q44 344 76 405T168 500T314 534ZM314 434Q240 434 207 387T174 262Q174 182 207 133T315 85Q389 85 423 133T457 262Q457 341 423 387T314 434ZM214 726Q281 726 281 659Q281 592 214 592Q179 592 163 610T147 659Q147 689 163 707T214 726ZM417 726Q452 726 468 707T484 659Q484 629 468 610T417 592Q350 592 350 659Q350 726 417 726Z" horiz-adv-x="630" unicode="ö"/>
			<glyph d="M105 340H505V240H105ZM305 144Q343 144 359 125T375 74Q375 42 359 23T305 4Q234 4 234 74Q234 144 305 144ZM305 575Q343 575 359 556T375 505Q375 473 359 454T305 435Q234 435 234 505Q234 575 305 575Z" unicode="÷"/>
			<glyph d="M351 618L457 596L434 513Q507 483 546 417T585 262Q585 181 552 118T458 21T314 -14H298L278 -99L171 -76L195 9Q123 40 83 106T44 262Q44 344 76 405T168 500T314 534H331ZM314 437Q171 437 171 262Q171 202 185 162T232 103L318 437ZM397 418L311 83H314Q390 83 424 131T459 262Q459 321 444 359T397 418Z" horiz-adv-x="630" unicode="ø"/>
			<glyph d="M72 520H198V219Q198 157 223 121T303 85Q362 85 396 128T431 238V520H556V119Q556 65 565 0H445Q438 36 437 61H435Q380 -14 269 -14Q172 -14 122 45T72 200ZM256 771L427 633L381 567L196 683Z" horiz-adv-x="634" unicode="ù"/>
			<glyph d="M72 520H198V219Q198 157 223 121T303 85Q362 85 396 128T431 238V520H556V119Q556 65 565 0H445Q438 36 437 61H435Q380 -14 269 -14Q172 -14 122 45T72 200ZM381 771L441 683L257 567L210 633Z" horiz-adv-x="634" unicode="ú"/>
			<glyph d="M72 520H198V219Q198 157 223 121T303 85Q362 85 396 128T431 238V520H556V119Q556 65 565 0H445Q438 36 437 61H435Q380 -14 269 -14Q172 -14 122 45T72 200ZM268 745H365V744L492 619L445 569L317 668L188 567L141 619Z" horiz-adv-x="634" unicode="û"/>
			<glyph d="M72 520H198V219Q198 157 223 121T303 85Q362 85 396 128T431 238V520H556V119Q556 65 565 0H445Q438 36 437 61H435Q380 -14 269 -14Q172 -14 122 45T72 200ZM216 726Q283 726 283 659Q283 592 216 592Q181 592 165 610T149 659Q149 689 165 707T216 726ZM419 726Q454 726 470 707T486 659Q486 629 470 610T419 592Q352 592 352 659Q352 726 419 726Z" horiz-adv-x="634" unicode="ü"/>
			<glyph d="M-2 520H134L261 130H263L377 520H506L291 -104Q264 -183 220 -220T104 -257Q54 -257 15 -242L39 -149Q62 -156 85 -156Q121 -156 140 -136T175 -77L200 -4ZM317 771L377 683L193 567L146 633Z" horiz-adv-x="505" unicode="ý"/>
			<glyph d="M78 708H203V462H205Q258 534 368 534Q442 534 492 497T567 399T592 261Q592 185 564 122T482 22T355 -14Q264 -14 203 36V-244H78ZM339 434Q280 434 241 393T203 293V127Q234 106 262 95T324 85Q393 85 427 132T462 261Q462 345 429 389T339 434Z" horiz-adv-x="637" unicode="þ"/>
			<glyph d="M-2 520H134L261 130H263L377 520H506L291 -104Q264 -183 220 -220T104 -257Q54 -257 15 -242L39 -149Q62 -156 85 -156Q121 -156 140 -136T175 -77L200 -4ZM152 726Q219 726 219 659Q219 592 152 592Q117 592 101 610T85 659Q85 689 101 707T152 726ZM355 726Q390 726 406 707T422 659Q422 629 406 610T355 592Q288 592 288 659Q288 726 355 726Z" horiz-adv-x="505" unicode="ÿ"/>
			<glyph d="M269 708H404L675 0H533L479 153H191L134 0H-3ZM336 574L226 253H445ZM191 882H490V799H191Z" horiz-adv-x="673" unicode="Ā"/>
			<glyph d="M269 534Q388 534 441 480T494 317V119Q494 81 503 0H388Q381 41 379 59H376Q348 22 309 4T206 -14Q134 -14 86 27T38 146Q38 248 110 288T319 328Q352 328 369 327V353Q369 437 262 437Q185 437 111 397L69 480Q111 505 164 519T269 534ZM332 244Q244 244 206 223T168 155Q168 121 188 102T242 84Q279 84 308 100T353 143T370 201V243ZM137 689H436V606H137Z" horiz-adv-x="569" unicode="ā"/>
			<glyph d="M269 708H404L675 0H533L479 153H191L134 0H-3ZM336 574L226 253H445ZM250 912Q258 883 281 867T338 851Q371 851 394 867T425 912L496 903Q488 839 446 802T338 766H337Q270 766 228 802T179 903Z" horiz-adv-x="673" unicode="Ă"/>
			<glyph d="M269 534Q388 534 441 480T494 317V119Q494 81 503 0H388Q381 41 379 59H376Q348 22 309 4T206 -14Q134 -14 86 27T38 146Q38 248 110 288T319 328Q352 328 369 327V353Q369 437 262 437Q185 437 111 397L69 480Q111 505 164 519T269 534ZM332 244Q244 244 206 223T168 155Q168 121 188 102T242 84Q279 84 308 100T353 143T370 201V243ZM197 739Q213 663 286 663Q360 663 376 739L448 730Q440 656 398 616T286 577Q216 577 174 616T124 730Z" horiz-adv-x="569" unicode="ă"/>
			<glyph d="M269 708H404L675 0H626Q574 -36 548 -66T522 -127Q522 -146 534 -156T567 -167Q597 -167 628 -152L652 -221Q607 -248 553 -248Q502 -248 466 -221T431 -145Q431 -101 458 -62T532 4L479 153H191L134 0H-3ZM336 574L226 253H445Z" horiz-adv-x="673" unicode="Ą"/>
			<glyph d="M269 534Q388 534 441 480T494 317V119Q494 81 503 0H483Q431 -36 405 -66T379 -127Q379 -146 391 -156T424 -167Q454 -167 485 -152L509 -221Q464 -248 410 -248Q359 -248 323 -221T288 -145Q288 -101 314 -63T387 3Q380 49 379 59H376Q348 22 309 4T206 -14Q134 -14 86 27T38 146Q38 248 110 288T319 328Q352 328 369 327V353Q369 437 262 437Q185 437 111 397L69 480Q111 505 164 519T269 534ZM332 244Q244 244 206 223T168 155Q168 121 188 102T242 84Q279 84 308 100T353 143T370 201V243Z" horiz-adv-x="569" unicode="ą"/>
			<glyph d="M401 728Q475 728 541 704T650 638L576 554Q542 583 498 599T406 615Q290 615 235 544T180 355Q180 238 235 167T403 97Q456 97 501 116T580 168L659 82Q614 37 546 9T399 -19Q286 -19 206 28T85 160T44 355Q44 467 85 551T207 681T401 728ZM473 948L525 856L328 762L288 827Z" horiz-adv-x="678" unicode="Ć"/>
			<glyph d="M310 534Q408 534 484 478L437 391Q377 430 311 430Q240 430 205 385T170 261Q170 184 205 137T309 91Q370 91 438 131L483 42Q444 15 397 0T299 -14Q204 -14 147 28T67 132T44 261Q44 344 76 405T168 500T310 534ZM366 771L426 683L242 567L195 633Z" horiz-adv-x="511" unicode="ć"/>
			<glyph d="M401 728Q475 728 541 704T650 638L576 554Q542 583 498 599T406 615Q290 615 235 544T180 355Q180 238 235 167T403 97Q456 97 501 116T580 168L659 82Q614 37 546 9T399 -19Q286 -19 206 28T85 160T44 355Q44 467 85 551T207 681T401 728ZM349 920H445L570 816L526 761L397 845L269 760L225 816Z" horiz-adv-x="678" unicode="Ĉ"/>
			<glyph d="M310 534Q408 534 484 478L437 391Q377 430 311 430Q240 430 205 385T170 261Q170 184 205 137T309 91Q370 91 438 131L483 42Q444 15 397 0T299 -14Q204 -14 147 28T67 132T44 261Q44 344 76 405T168 500T310 534ZM254 745H351V744L478 619L431 569L303 668L174 567L127 619Z" horiz-adv-x="511" unicode="ĉ"/>
			<glyph d="M401 728Q475 728 541 704T650 638L576 554Q542 583 498 599T406 615Q290 615 235 544T180 355Q180 238 235 167T403 97Q456 97 501 116T580 168L659 82Q614 37 546 9T399 -19Q286 -19 206 28T85 160T44 355Q44 467 85 551T207 681T401 728ZM397 933Q438 933 456 913T474 861Q474 830 455 810T397 790Q356 790 338 810T320 861Q320 933 397 933Z" horiz-adv-x="678" unicode="Ċ"/>
			<glyph d="M310 534Q408 534 484 478L437 391Q377 430 311 430Q240 430 205 385T170 261Q170 184 205 137T309 91Q370 91 438 131L483 42Q444 15 397 0T299 -14Q204 -14 147 28T67 132T44 261Q44 344 76 405T168 500T310 534ZM303 754Q344 754 362 734T380 682Q380 651 361 631T303 611Q262 611 244 631T226 682Q226 754 303 754Z" horiz-adv-x="511" unicode="ċ"/>
			<glyph d="M401 728Q475 728 541 704T650 638L576 554Q542 583 498 599T406 615Q290 615 235 544T180 355Q180 238 235 167T403 97Q456 97 501 116T580 168L659 82Q614 37 546 9T399 -19Q286 -19 206 28T85 160T44 355Q44 467 85 551T207 681T401 728ZM268 932L396 847L525 931L569 875L444 772H348L224 875Z" horiz-adv-x="678" unicode="Č"/>
			<glyph d="M310 534Q408 534 484 478L437 391Q377 430 311 430Q240 430 205 385T170 261Q170 184 205 137T309 91Q370 91 438 131L483 42Q444 15 397 0T299 -14Q204 -14 147 28T67 132T44 261Q44 344 76 405T168 500T310 534ZM175 757L303 656L431 755L479 704L351 580V579H254L127 704Z" horiz-adv-x="511" unicode="č"/>
			<glyph d="M80 708H321Q501 708 599 621T697 355Q697 241 651 161T522 40T326 0H80ZM210 601V108H313Q436 108 499 168T562 355Q562 482 500 541T316 601ZM209 932L337 847L466 931L510 875L385 772H289L165 875Z" horiz-adv-x="740" unicode="Ď"/>
			<glyph d="M432 708H557V119Q557 72 565 0H449Q442 39 441 65H439Q410 25 368 5T264 -14Q154 -14 99 61T44 257Q44 334 73 397T156 497T285 534Q374 534 432 482ZM304 433Q242 433 208 385T174 257Q174 174 207 129T298 85Q357 85 394 124T432 227V379Q381 433 304 433ZM634 727L736 700L674 533L602 551Z" horiz-adv-x="695" unicode="ď"/>
			<glyph d="M80 708H321Q501 708 599 621T697 355Q697 241 651 161T522 40T326 0H80V313H7V396H80ZM210 601V396H366V313H210V108H313Q436 108 499 168T562 355Q562 482 500 541T316 601Z" horiz-adv-x="740" unicode="Đ"/>
			<glyph d="M432 708H557V653H623V577H557V119Q557 72 565 0H449Q442 39 441 65H439Q410 25 368 5T264 -14Q154 -14 99 61T44 257Q44 334 73 397T156 497T285 534Q374 534 432 482V577H279V653H432ZM304 433Q242 433 208 385T174 257Q174 174 207 129T298 85Q357 85 394 124T432 227V379Q381 433 304 433Z" horiz-adv-x="635" unicode="đ"/>
			<glyph d="M80 708H527V603H211V414H481V313H211V107H544V0H80ZM173 882H472V799H173Z" horiz-adv-x="568" unicode="Ē"/>
			<glyph d="M295 534Q413 534 474 460T535 261Q535 237 532 214H170Q178 152 214 118T315 85Q359 85 392 96T464 132L518 52Q473 19 421 2T307 -14Q225 -14 166 20T75 116T44 260Q44 384 109 459T295 534ZM294 440Q236 440 204 402T169 308H412Q410 366 380 403T294 440ZM150 689H449V606H150Z" horiz-adv-x="579" unicode="ē"/>
			<glyph d="M80 708H527V603H211V414H481V313H211V107H544V0H80ZM233 912Q241 883 264 867T321 851Q354 851 377 867T408 912L479 903Q471 839 429 802T321 766H320Q253 766 211 802T162 903Z" horiz-adv-x="568" unicode="Ĕ"/>
			<glyph d="M295 534Q413 534 474 460T535 261Q535 237 532 214H170Q178 152 214 118T315 85Q359 85 392 96T464 132L518 52Q473 19 421 2T307 -14Q225 -14 166 20T75 116T44 260Q44 384 109 459T295 534ZM294 440Q236 440 204 402T169 308H412Q410 366 380 403T294 440ZM210 739Q226 663 299 663Q373 663 389 739L461 730Q453 656 411 616T299 577Q229 577 187 616T137 730Z" horiz-adv-x="579" unicode="ĕ"/>
			<glyph d="M80 708H527V603H211V414H481V313H211V107H544V0H80ZM320 933Q361 933 379 913T397 861Q397 830 378 810T320 790Q279 790 261 810T243 861Q243 933 320 933Z" horiz-adv-x="568" unicode="Ė"/>
			<glyph d="M295 534Q413 534 474 460T535 261Q535 237 532 214H170Q178 152 214 118T315 85Q359 85 392 96T464 132L518 52Q473 19 421 2T307 -14Q225 -14 166 20T75 116T44 260Q44 384 109 459T295 534ZM294 440Q236 440 204 402T169 308H412Q410 366 380 403T294 440ZM300 754Q341 754 359 734T377 682Q377 651 358 631T300 611Q259 611 241 631T223 682Q223 754 300 754Z" horiz-adv-x="579" unicode="ė"/>
			<glyph d="M80 708H527V603H211V414H481V313H211V107H544V0H501Q449 -36 423 -66T397 -127Q397 -146 409 -156T442 -167Q472 -167 503 -152L527 -221Q482 -248 428 -248Q377 -248 341 -221T306 -145Q306 -103 331 -65T401 0H80Z" horiz-adv-x="568" unicode="Ę"/>
			<glyph d="M295 534Q413 534 474 460T535 261Q535 237 532 214H170Q178 152 214 118T315 85Q359 85 392 96T464 132L518 52Q481 24 441 10Q337 -69 337 -127Q337 -146 349 -156T382 -167Q412 -167 443 -152L467 -221Q422 -248 368 -248Q317 -248 281 -221T246 -145Q246 -70 328 -14H307Q225 -14 166 20T75 116T44 260Q44 384 109 459T295 534ZM294 440Q236 440 204 402T169 308H412Q410 366 380 403T294 440Z" horiz-adv-x="579" unicode="ę"/>
			<glyph d="M80 708H527V603H211V414H481V313H211V107H544V0H80ZM191 932L319 847L448 931L492 875L367 772H271L147 875Z" horiz-adv-x="568" unicode="Ě"/>
			<glyph d="M295 534Q413 534 474 460T535 261Q535 237 532 214H170Q178 152 214 118T315 85Q359 85 392 96T464 132L518 52Q473 19 421 2T307 -14Q225 -14 166 20T75 116T44 260Q44 384 109 459T295 534ZM294 440Q236 440 204 402T169 308H412Q410 366 380 403T294 440ZM172 757L300 656L428 755L476 704L348 580V579H251L124 704Z" horiz-adv-x="579" unicode="ě"/>
			<glyph d="M404 727Q478 727 544 703T653 637L579 553Q545 582 500 598T409 615Q292 615 235 544T178 355Q178 90 407 90Q481 90 549 119V277H404V377H670V48Q550 -19 405 -19Q288 -19 207 28T85 159T44 355Q44 466 86 550T210 680T404 727ZM353 920H449L574 816L530 761L401 845L273 760L229 816Z" horiz-adv-x="742" unicode="Ĝ"/>
			<glyph d="M275 534Q304 534 325 530T372 520H561V421L456 438Q474 422 484 394T494 333Q494 253 436 208T275 163Q228 163 203 152T179 123Q179 106 202 96T275 86Q413 82 479 45T545 -67Q545 -159 469 -208T257 -257Q139 -257 77 -215T16 -96Q16 -14 108 41Q87 54 76 70T65 111Q65 139 84 161T137 193Q49 239 49 346Q49 433 109 483T275 534ZM271 443Q222 443 192 416T163 348Q163 303 190 276T271 250Q379 250 379 344Q379 389 352 416T271 443ZM192 -8Q137 -39 137 -89Q137 -164 260 -164Q339 -164 380 -142T421 -80Q421 -43 369 -26T192 -8ZM229 745H326V744L453 619L406 569L278 668L149 567L102 619Z" horiz-adv-x="581" unicode="ĝ"/>
			<glyph d="M404 727Q478 727 544 703T653 637L579 553Q545 582 500 598T409 615Q292 615 235 544T178 355Q178 90 407 90Q481 90 549 119V277H404V377H670V48Q550 -19 405 -19Q288 -19 207 28T85 159T44 355Q44 466 86 550T210 680T404 727ZM313 912Q321 883 344 867T401 851Q434 851 457 867T488 912L559 903Q551 839 509 802T401 766H400Q333 766 291 802T242 903Z" horiz-adv-x="742" unicode="Ğ"/>
			<glyph d="M275 534Q304 534 325 530T372 520H561V421L456 438Q474 422 484 394T494 333Q494 253 436 208T275 163Q228 163 203 152T179 123Q179 106 202 96T275 86Q413 82 479 45T545 -67Q545 -159 469 -208T257 -257Q139 -257 77 -215T16 -96Q16 -14 108 41Q87 54 76 70T65 111Q65 139 84 161T137 193Q49 239 49 346Q49 433 109 483T275 534ZM271 443Q222 443 192 416T163 348Q163 303 190 276T271 250Q379 250 379 344Q379 389 352 416T271 443ZM192 -8Q137 -39 137 -89Q137 -164 260 -164Q339 -164 380 -142T421 -80Q421 -43 369 -26T192 -8ZM188 739Q204 663 277 663Q351 663 367 739L439 730Q431 656 389 616T277 577Q207 577 165 616T115 730Z" horiz-adv-x="581" unicode="ğ"/>
			<glyph d="M404 727Q478 727 544 703T653 637L579 553Q545 582 500 598T409 615Q292 615 235 544T178 355Q178 90 407 90Q481 90 549 119V277H404V377H670V48Q550 -19 405 -19Q288 -19 207 28T85 159T44 355Q44 466 86 550T210 680T404 727ZM401 933Q442 933 460 913T478 861Q478 830 459 810T401 790Q360 790 342 810T324 861Q324 933 401 933Z" horiz-adv-x="742" unicode="Ġ"/>
			<glyph d="M275 534Q304 534 325 530T372 520H561V421L456 438Q474 422 484 394T494 333Q494 253 436 208T275 163Q228 163 203 152T179 123Q179 106 202 96T275 86Q413 82 479 45T545 -67Q545 -159 469 -208T257 -257Q139 -257 77 -215T16 -96Q16 -14 108 41Q87 54 76 70T65 111Q65 139 84 161T137 193Q49 239 49 346Q49 433 109 483T275 534ZM271 443Q222 443 192 416T163 348Q163 303 190 276T271 250Q379 250 379 344Q379 389 352 416T271 443ZM192 -8Q137 -39 137 -89Q137 -164 260 -164Q339 -164 380 -142T421 -80Q421 -43 369 -26T192 -8ZM278 754Q319 754 337 734T355 682Q355 651 336 631T278 611Q237 611 219 631T201 682Q201 754 278 754Z" horiz-adv-x="581" unicode="ġ"/>
			<glyph d="M404 727Q478 727 544 703T653 637L579 553Q545 582 500 598T409 615Q292 615 235 544T178 355Q178 90 407 90Q481 90 549 119V277H404V377H670V48Q550 -19 405 -19Q288 -19 207 28T85 159T44 355Q44 466 86 550T210 680T404 727ZM409 -56Q477 -56 477 -117Q477 -189 396 -285L344 -259Q372 -216 377 -171Q341 -159 341 -117Q341 -56 409 -56Z" horiz-adv-x="742" unicode="Ģ"/>
			<glyph d="M275 534Q304 534 325 530T372 520H561V421L456 438Q474 422 484 394T494 333Q494 253 436 208T275 163Q228 163 203 152T179 123Q179 106 202 96T275 86Q413 82 479 45T545 -67Q545 -159 469 -208T257 -257Q139 -257 77 -215T16 -96Q16 -14 108 41Q87 54 76 70T65 111Q65 139 84 161T137 193Q49 239 49 346Q49 433 109 483T275 534ZM271 443Q222 443 192 416T163 348Q163 303 190 276T271 250Q379 250 379 344Q379 389 352 416T271 443ZM192 -8Q137 -39 137 -89Q137 -164 260 -164Q339 -164 380 -142T421 -80Q421 -43 369 -26T192 -8ZM290 832L342 806Q314 763 309 718Q345 706 345 664Q345 603 277 603Q209 603 209 664Q209 736 290 832Z" horiz-adv-x="581" unicode="ģ"/>
			<glyph d="M80 708H211V416H538V708H670V0H538V311H211V0H80ZM327 920H423L548 816L504 761L375 845L247 760L203 816Z" horiz-adv-x="749" unicode="Ĥ"/>
			<glyph d="M78 708H203V463H205Q262 534 372 534Q468 534 514 479T561 344V0H436V317Q436 367 411 398T330 430Q272 430 237 390T203 289V0H78ZM270 920H366L491 816L447 761L318 845L190 760L146 816Z" horiz-adv-x="634" unicode="ĥ"/>
			<glyph d="M80 708H211V609H538V708H670V609H743V526H670V0H538V311H211V0H80V526H3V609H80ZM211 526V416H538V526Z" horiz-adv-x="749" unicode="Ħ"/>
			<glyph d="M78 708H203V653H354V576H203V463H205Q262 534 372 534Q468 534 514 479T561 344V0H436V317Q436 367 411 398T330 430Q272 430 237 390T203 289V0H78V576H10V653H78Z" horiz-adv-x="634" unicode="ħ"/>
			<glyph d="M48 708H342V612H259V99H342V0H48V99H131V612H48ZM139 908Q158 908 172 901T206 882Q221 872 230 867T250 863Q281 863 306 906L368 881Q349 831 320 806T250 781Q231 781 216 787T186 806Q172 816 161 821T139 826Q109 826 84 783L22 808Q41 857 69 882T139 908Z" horiz-adv-x="390" unicode="Ĩ"/>
			<glyph d="M78 520H203V0H78ZM85 715Q104 715 118 708T152 689Q167 679 176 674T196 670Q227 670 252 713L314 688Q295 638 266 613T196 588Q177 588 162 594T132 613Q118 623 107 628T85 633Q55 633 30 590L-32 615Q-13 664 15 689T85 715Z" horiz-adv-x="282" unicode="ĩ"/>
			<glyph d="M48 708H342V612H259V99H342V0H48V99H131V612H48ZM49 882H348V799H49Z" horiz-adv-x="390" unicode="Ī"/>
			<glyph d="M78 520H203V0H78ZM-9 689H290V606H-9Z" horiz-adv-x="282" unicode="ī"/>
			<glyph d="M48 708H342V612H259V99H342V0H48V99H131V612H48ZM108 912Q116 883 139 867T196 851Q229 851 252 867T283 912L354 903Q346 839 304 802T196 766H195Q128 766 86 802T37 903Z" horiz-adv-x="390" unicode="Ĭ"/>
			<glyph d="M78 520H203V0H78ZM51 739Q67 663 140 663Q214 663 230 739L302 730Q294 656 252 616T140 577Q70 577 28 616T-22 730Z" horiz-adv-x="282" unicode="ĭ"/>
			<glyph d="M48 708H342V612H259V99H342V0H241Q189 -36 163 -66T137 -127Q137 -146 149 -156T182 -167Q212 -167 243 -152L267 -221Q222 -248 168 -248Q117 -248 81 -221T46 -145Q46 -103 71 -65T141 0H48V99H131V612H48Z" horiz-adv-x="390" unicode="Į"/>
			<glyph d="M141 754Q182 754 200 734T218 682Q218 651 199 631T141 611Q100 611 82 631T64 682Q64 754 141 754ZM78 520H203V0H173Q121 -36 95 -66T69 -127Q69 -146 81 -156T114 -167Q143 -167 175 -152L199 -221Q154 -248 100 -248Q49 -248 13 -221T-22 -145Q-22 -101 4 -63T78 3Z" horiz-adv-x="282" unicode="į"/>
			<glyph d="M48 708H342V612H259V99H342V0H48V99H131V612H48ZM196 933Q237 933 255 913T273 861Q273 830 254 810T196 790Q155 790 137 810T119 861Q119 933 196 933Z" horiz-adv-x="390" unicode="İ"/>
			<glyph d="M78 520H203V0H78Z" horiz-adv-x="282" unicode="ı"/>
			<glyph d="M48 708H342V612H259V99H342V0H48V99H131V612H48ZM613 708H744V211Q744 148 720 96T648 12T526 -19Q449 -19 393 17L441 114Q455 105 475 99T517 94Q613 94 613 210Z" horiz-adv-x="816" unicode="Ĳ"/>
			<glyph d="M141 754Q182 754 200 734T218 682Q218 651 199 631T141 611Q100 611 82 631T64 682Q64 754 141 754ZM423 754Q464 754 482 734T500 682Q500 651 481 631T423 611Q382 611 364 631T346 682Q346 754 423 754ZM78 520H203V0H78ZM360 520H485V-64Q485 -157 442 -207T310 -258Q271 -258 237 -247L260 -156Q274 -159 293 -159Q331 -159 345 -136T360 -66Z" horiz-adv-x="563" unicode="ĳ"/>
			<glyph d="M223 708H354V211Q354 148 330 96T258 12T136 -19Q59 -19 3 17L51 114Q65 105 85 99T127 94Q223 94 223 210ZM241 920H337L462 816L418 761L289 845L161 760L117 816Z" horiz-adv-x="426" unicode="Ĵ"/>
			<glyph d="M78 520H203V-64Q203 -157 160 -207T28 -258Q-11 -258 -45 -247L-22 -156Q-8 -159 11 -159Q49 -159 63 -136T78 -66ZM92 745H189V744L316 619L269 569L141 668L12 567L-35 619Z" horiz-adv-x="282" unicode="ĵ"/>
			<glyph d="M80 708H211V417L489 708H645L339 387L670 0H507L253 296L211 253V0H80ZM348 -56Q416 -56 416 -117Q416 -189 335 -285L283 -259Q311 -216 316 -171Q280 -159 280 -117Q280 -56 348 -56Z" horiz-adv-x="660" unicode="Ķ"/>
			<glyph d="M78 708H203V326L411 520H559L333 307L576 0H422L247 226L203 185V0H78ZM312 -56Q380 -56 380 -117Q380 -189 299 -285L247 -259Q275 -216 280 -171Q244 -159 244 -117Q244 -56 312 -56Z" horiz-adv-x="572" unicode="ķ"/>
			<glyph d="M78 520H203V307L411 520H559L330 292L576 0H422L247 210L203 166V0H78Z" horiz-adv-x="572" unicode="ĸ"/>
			<glyph d="M80 708H211V109H517V0H80ZM222 948L274 856L77 762L37 827Z" horiz-adv-x="521" unicode="Ĺ"/>
			<glyph d="M78 708H203V0H78ZM217 948L269 856L72 762L32 827Z" horiz-adv-x="282" unicode="ĺ"/>
			<glyph d="M80 708H211V109H517V0H80ZM298 -56Q366 -56 366 -117Q366 -189 285 -285L233 -259Q261 -216 266 -171Q230 -159 230 -117Q230 -56 298 -56Z" horiz-adv-x="521" unicode="Ļ"/>
			<glyph d="M78 708H203V0H78ZM140 -56Q208 -56 208 -117Q208 -189 127 -285L75 -259Q103 -216 108 -171Q72 -159 72 -117Q72 -56 140 -56Z" horiz-adv-x="282" unicode="ļ"/>
			<glyph d="M80 708H211V109H517V0H80ZM312 727L414 700L352 533L280 551Z" horiz-adv-x="521" unicode="Ľ"/>
			<glyph d="M78 708H203V0H78ZM277 727L379 700L317 533L245 551Z" horiz-adv-x="339" unicode="ľ"/>
			<glyph d="M80 708H211V109H517V0H80ZM403 464Q443 464 460 444T478 394Q478 364 460 344T403 325Q363 325 345 344T328 394Q328 464 403 464Z" horiz-adv-x="521" unicode="Ŀ"/>
			<glyph d="M78 708H203V0H78ZM309 414Q348 414 365 394T383 344Q383 314 365 294T309 275Q270 275 252 294T235 344Q235 414 309 414Z" horiz-adv-x="334" unicode="ŀ"/>
			<glyph d="M83 708H214V406L391 500L431 424L214 309V109H520V0H83V240L82 239L51 223L11 299L83 337Z" horiz-adv-x="523" unicode="Ł"/>
			<glyph d="M84 708H209V417L258 444L295 367L209 321V0H84V253L34 226L-3 303L84 350Z" horiz-adv-x="293" unicode="ł"/>
			<glyph d="M80 708H229L579 180H581L578 708H699V0H550L200 529H198L202 0H80ZM466 948L518 856L321 762L281 827Z" horiz-adv-x="779" unicode="Ń"/>
			<glyph d="M371 534Q436 534 478 507T541 437T561 344V0H436V317Q436 367 411 398T330 430Q271 430 237 390T203 289V0H78V401Q78 439 69 520H189Q195 489 197 460H199Q224 493 268 513T371 534ZM389 771L449 683L265 567L218 633Z" horiz-adv-x="633" unicode="ń"/>
			<glyph d="M80 708H229L579 180H581L578 708H699V0H550L200 529H198L202 0H80ZM388 -56Q456 -56 456 -117Q456 -189 375 -285L323 -259Q351 -216 356 -171Q320 -159 320 -117Q320 -56 388 -56Z" horiz-adv-x="779" unicode="Ņ"/>
			<glyph d="M371 534Q436 534 478 507T541 437T561 344V0H436V317Q436 367 411 398T330 430Q271 430 237 390T203 289V0H78V401Q78 439 69 520H189Q195 489 197 460H199Q224 493 268 513T371 534ZM316 -56Q384 -56 384 -117Q384 -189 303 -285L251 -259Q279 -216 284 -171Q248 -159 248 -117Q248 -56 316 -56Z" horiz-adv-x="633" unicode="ņ"/>
			<glyph d="M80 708H229L579 180H581L578 708H699V0H550L200 529H198L202 0H80ZM261 932L389 847L518 931L562 875L437 772H341L217 875Z" horiz-adv-x="779" unicode="Ň"/>
			<glyph d="M371 534Q436 534 478 507T541 437T561 344V0H436V317Q436 367 411 398T330 430Q271 430 237 390T203 289V0H78V401Q78 439 69 520H189Q195 489 197 460H199Q224 493 268 513T371 534ZM198 757L326 656L454 755L502 704L374 580V579H277L150 704Z" horiz-adv-x="633" unicode="ň"/>
			<glyph d="M371 534Q436 534 478 507T541 437T561 344V0H436V317Q436 367 411 398T330 430Q271 430 237 390T203 289V0H78V401Q78 439 69 520H189Q195 489 197 460H199Q224 493 268 513T371 534ZM76 775Q144 775 144 714Q144 642 64 548L12 574Q39 616 44 660Q8 672 8 714Q8 775 76 775Z" horiz-adv-x="633" unicode="ŉ"/>
			<glyph d="M80 708H229L579 180H581L578 708H699V-64Q699 -157 656 -207T524 -258Q485 -258 451 -247L473 -156Q488 -159 506 -159Q544 -159 559 -136T574 -66V0H550L200 529H198L202 0H80Z" horiz-adv-x="779" unicode="Ŋ"/>
			<glyph d="M371 534Q436 534 478 507T541 437T561 344V-64Q561 -157 518 -207T386 -258Q347 -258 313 -247L335 -156Q350 -159 368 -159Q406 -159 421 -136T436 -66V317Q436 367 411 398T330 430Q271 430 237 390T203 289V0H78V401Q78 439 69 520H189Q195 489 197 460H199Q224 493 268 513T371 534Z" horiz-adv-x="633" unicode="ŋ"/>
			<glyph d="M406 727Q519 727 601 680T726 549T769 354Q769 243 726 158T601 27T406 -19Q293 -19 211 27T87 158T44 354Q44 465 87 549T211 680T406 727ZM406 614Q293 614 235 544T178 354Q178 234 235 164T406 94Q520 94 577 164T635 354Q635 474 577 544T406 614ZM259 882H558V799H259Z" horiz-adv-x="812" unicode="Ō"/>
			<glyph d="M314 534Q399 534 460 500T553 405T585 262Q585 181 552 118T458 21T314 -14Q231 -14 170 21T76 119T44 262Q44 344 76 405T168 500T314 534ZM314 434Q240 434 207 387T174 262Q174 182 207 133T315 85Q389 85 423 133T457 262Q457 341 423 387T314 434ZM166 689H465V606H166Z" horiz-adv-x="630" unicode="ō"/>
			<glyph d="M406 727Q519 727 601 680T726 549T769 354Q769 243 726 158T601 27T406 -19Q293 -19 211 27T87 158T44 354Q44 465 87 549T211 680T406 727ZM406 614Q293 614 235 544T178 354Q178 234 235 164T406 94Q520 94 577 164T635 354Q635 474 577 544T406 614ZM319 912Q327 883 350 867T407 851Q440 851 463 867T494 912L565 903Q557 839 515 802T407 766H406Q339 766 297 802T248 903Z" horiz-adv-x="812" unicode="Ŏ"/>
			<glyph d="M314 534Q399 534 460 500T553 405T585 262Q585 181 552 118T458 21T314 -14Q231 -14 170 21T76 119T44 262Q44 344 76 405T168 500T314 534ZM314 434Q240 434 207 387T174 262Q174 182 207 133T315 85Q389 85 423 133T457 262Q457 341 423 387T314 434ZM226 739Q242 663 315 663Q389 663 405 739L477 730Q469 656 427 616T315 577Q245 577 203 616T153 730Z" horiz-adv-x="630" unicode="ŏ"/>
			<glyph d="M406 727Q519 727 601 680T726 549T769 354Q769 243 726 158T601 27T406 -19Q293 -19 211 27T87 158T44 354Q44 465 87 549T211 680T406 727ZM406 614Q293 614 235 544T178 354Q178 234 235 164T406 94Q520 94 577 164T635 354Q635 474 577 544T406 614ZM385 968L462 925L352 763L295 792ZM536 960L609 909L489 756L434 791Z" horiz-adv-x="812" unicode="Ő"/>
			<glyph d="M314 534Q399 534 460 500T553 405T585 262Q585 181 552 118T458 21T314 -14Q231 -14 170 21T76 119T44 262Q44 344 76 405T168 500T314 534ZM314 434Q240 434 207 387T174 262Q174 182 207 133T315 85Q389 85 423 133T457 262Q457 341 423 387T314 434ZM292 775L369 732L259 570L202 599ZM443 767L516 716L396 563L341 598Z" horiz-adv-x="630" unicode="ő"/>
			<glyph d="M396 727Q459 727 507 708H986V603H645Q708 529 723 414H940V313H724Q714 185 636 107H1002V0H505Q459 -19 396 -19Q288 -19 208 27T86 158T44 354Q44 465 86 549T208 680T396 727ZM396 614Q289 614 233 543T178 354Q178 235 233 164T396 94Q495 94 545 164T595 354Q595 474 545 544T396 614Z" horiz-adv-x="1027" unicode="Œ"/>
			<glyph d="M308 534Q441 534 506 434Q537 483 583 508T694 534Q804 534 864 459T924 261Q924 244 920 214H571Q579 153 614 119T709 85Q749 85 781 96T852 132L906 52Q815 -14 702 -14Q572 -14 507 89Q441 -14 308 -14Q228 -14 168 21T76 119T44 262Q44 343 75 404T166 500T308 534ZM691 440Q636 440 605 402T570 308H801Q799 366 770 403T691 440ZM308 434Q238 434 206 387T174 262Q174 182 206 133T309 85Q379 85 412 133T445 262Q445 341 412 387T308 434Z" horiz-adv-x="967" unicode="œ"/>
			<glyph d="M80 708H328Q447 708 521 646T595 471Q595 321 452 266L621 0H471L331 240H211V0H80ZM210 603V340H321Q382 340 421 372T460 471Q460 538 420 570T319 603ZM393 948L445 856L248 762L208 827Z" horiz-adv-x="653" unicode="Ŕ"/>
			<glyph d="M353 534Q371 534 385 530L380 422Q365 425 342 425Q276 425 239 382T203 273V0H78V401Q78 439 69 520H189Q196 478 197 448H199Q245 534 353 534ZM290 771L350 683L166 567L119 633Z" horiz-adv-x="392" unicode="ŕ"/>
			<glyph d="M80 708H328Q447 708 521 646T595 471Q595 321 452 266L621 0H471L331 240H211V0H80ZM210 603V340H321Q382 340 421 372T460 471Q460 538 420 570T319 603ZM330 -56Q398 -56 398 -117Q398 -189 317 -285L265 -259Q293 -216 298 -171Q262 -159 262 -117Q262 -56 330 -56Z" horiz-adv-x="653" unicode="Ŗ"/>
			<glyph d="M353 534Q371 534 385 530L380 422Q365 425 342 425Q276 425 239 382T203 273V0H78V401Q78 439 69 520H189Q196 478 197 448H199Q245 534 353 534ZM139 -56Q207 -56 207 -117Q207 -189 126 -285L74 -259Q102 -216 107 -171Q71 -159 71 -117Q71 -56 139 -56Z" horiz-adv-x="392" unicode="ŗ"/>
			<glyph d="M80 708H328Q447 708 521 646T595 471Q595 321 452 266L621 0H471L331 240H211V0H80ZM210 603V340H321Q382 340 421 372T460 471Q460 538 420 570T319 603ZM188 932L316 847L445 931L489 875L364 772H268L144 875Z" horiz-adv-x="653" unicode="Ř"/>
			<glyph d="M353 534Q371 534 385 530L380 422Q365 425 342 425Q276 425 239 382T203 273V0H78V401Q78 439 69 520H189Q196 478 197 448H199Q245 534 353 534ZM98 757L226 656L354 755L402 704L274 580V579H177L50 704Z" horiz-adv-x="392" unicode="ř"/>
			<glyph d="M299 725Q429 725 528 655L469 570Q427 596 387 608T302 620Q246 620 212 598T179 534Q179 490 213 467T326 424Q430 397 485 346T540 200Q540 128 504 78T406 5T270 -19Q199 -19 137 2T26 64L89 147Q130 117 173 104T269 91Q331 91 368 117T406 195Q406 233 388 255T336 292T244 322Q148 347 98 395T49 526Q49 589 82 634T171 702T299 725ZM384 948L436 856L239 762L199 827Z" horiz-adv-x="575" unicode="Ś"/>
			<glyph d="M243 534Q347 534 421 479L371 400Q310 438 248 438Q208 438 186 424T164 386Q164 365 174 352T206 331T276 311Q352 292 390 254T429 156Q429 74 367 30T215 -14Q100 -14 23 45L77 123Q109 103 140 93T209 83Q252 83 275 99T299 147Q299 168 289 180T257 201T189 221Q112 240 75 277T39 378Q39 451 95 492T243 534ZM303 771L363 683L179 567L132 633Z" horiz-adv-x="461" unicode="ś"/>
			<glyph d="M299 725Q429 725 528 655L469 570Q427 596 387 608T302 620Q246 620 212 598T179 534Q179 490 213 467T326 424Q430 397 485 346T540 200Q540 128 504 78T406 5T270 -19Q199 -19 137 2T26 64L89 147Q130 117 173 104T269 91Q331 91 368 117T406 195Q406 233 388 255T336 292T244 322Q148 347 98 395T49 526Q49 589 82 634T171 702T299 725ZM260 920H356L481 816L437 761L308 845L180 760L136 816Z" horiz-adv-x="575" unicode="Ŝ"/>
			<glyph d="M243 534Q347 534 421 479L371 400Q310 438 248 438Q208 438 186 424T164 386Q164 365 174 352T206 331T276 311Q352 292 390 254T429 156Q429 74 367 30T215 -14Q100 -14 23 45L77 123Q109 103 140 93T209 83Q252 83 275 99T299 147Q299 168 289 180T257 201T189 221Q112 240 75 277T39 378Q39 451 95 492T243 534ZM191 745H288V744L415 619L368 569L240 668L111 567L64 619Z" horiz-adv-x="461" unicode="ŝ"/>
			<glyph d="M299 725Q429 725 528 655L469 570Q427 596 387 608T302 620Q246 620 212 598T179 534Q179 490 213 467T326 424Q430 397 485 346T540 200Q540 108 482 53T332 -15L318 -54Q325 -53 339 -53Q376 -53 401 -75T426 -140Q426 -197 387 -223T292 -249Q222 -249 177 -224L206 -158Q242 -176 287 -176Q337 -176 337 -140Q337 -125 327 -117T302 -110Q287 -110 269 -114H216L253 -19Q118 -13 26 64L89 147Q130 117 173 104T269 91Q331 91 368 117T406 195Q406 233 388 255T336 292T244 322Q148 347 98 395T49 526Q49 589 82 634T171 702T299 725Z" horiz-adv-x="575" unicode="Ş"/>
			<glyph d="M243 534Q347 534 421 479L371 400Q310 438 248 438Q208 438 186 424T164 386Q164 365 174 352T206 331T276 311Q352 292 390 254T429 156Q429 85 383 43T264 -10L249 -54Q256 -53 270 -53Q307 -53 332 -75T357 -140Q357 -197 318 -223T223 -249Q153 -249 108 -224L137 -158Q173 -176 218 -176Q268 -176 268 -140Q268 -125 258 -117T233 -110Q218 -110 200 -114H147L186 -13Q90 -7 23 45L77 123Q109 103 140 93T209 83Q252 83 275 99T299 147Q299 168 289 180T257 201T189 221Q112 240 75 277T39 378Q39 451 95 492T243 534Z" horiz-adv-x="461" unicode="ş"/>
			<glyph d="M299 725Q429 725 528 655L469 570Q427 596 387 608T302 620Q246 620 212 598T179 534Q179 490 213 467T326 424Q430 397 485 346T540 200Q540 128 504 78T406 5T270 -19Q199 -19 137 2T26 64L89 147Q130 117 173 104T269 91Q331 91 368 117T406 195Q406 233 388 255T336 292T244 322Q148 347 98 395T49 526Q49 589 82 634T171 702T299 725ZM179 932L307 847L436 931L480 875L355 772H259L135 875Z" horiz-adv-x="575" unicode="Š"/>
			<glyph d="M243 534Q347 534 421 479L371 400Q310 438 248 438Q208 438 186 424T164 386Q164 365 174 352T206 331T276 311Q352 292 390 254T429 156Q429 74 367 30T215 -14Q100 -14 23 45L77 123Q109 103 140 93T209 83Q252 83 275 99T299 147Q299 168 289 180T257 201T189 221Q112 240 75 277T39 378Q39 451 95 492T243 534ZM112 757L240 656L368 755L416 704L288 580V579H191L64 704Z" horiz-adv-x="461" unicode="š"/>
			<glyph d="M4 708H561V598H348V0H324L305 -54Q312 -53 326 -53Q363 -53 388 -75T413 -140Q413 -197 374 -223T279 -249Q209 -249 164 -224L193 -158Q229 -176 274 -176Q324 -176 324 -140Q324 -125 314 -117T289 -110Q274 -110 256 -114H203L247 0H217V598H4Z" horiz-adv-x="565" unicode="Ţ"/>
			<glyph d="M226 682V515H355V420H226V161Q226 87 293 87Q320 87 339 93L357 1Q322 -12 275 -14L261 -54Q268 -53 282 -53Q319 -53 344 -75T369 -140Q369 -197 330 -223T235 -249Q165 -249 120 -224L149 -158Q185 -176 230 -176Q280 -176 280 -140Q280 -125 270 -117T245 -110Q230 -110 212 -114H159L201 -5Q153 10 127 49T101 149V420H15V500L100 515V638Z" horiz-adv-x="385" unicode="ţ"/>
			<glyph d="M4 708H561V598H348V0H217V598H4ZM154 932L282 847L411 931L455 875L330 772H234L110 875Z" horiz-adv-x="565" unicode="Ť"/>
			<glyph d="M226 682V515H355V420H226V161Q226 87 293 87Q320 87 339 93L357 1Q319 -14 266 -14Q188 -14 144 28T101 149V420H15V500L100 515V638ZM311 727L413 700L351 533L279 551Z" horiz-adv-x="385" unicode="ť"/>
			<glyph d="M4 708H561V598H348V396H462V313H348V0H217V313H103V396H217V598H4Z" horiz-adv-x="565" unicode="Ŧ"/>
			<glyph d="M226 682V515H355V420H226V330H325V242H226V161Q226 87 293 87Q320 87 339 93L357 1Q319 -14 266 -14Q188 -14 144 28T101 149V242H15V330H101V420H15V500L100 515V638Z" horiz-adv-x="385" unicode="ŧ"/>
			<glyph d="M72 708H203V266Q203 180 241 137T369 94Q458 94 496 137T535 266V708H666V256Q666 126 588 53T369 -19Q228 -19 150 53T72 256ZM313 908Q332 908 346 901T380 882Q395 872 404 867T424 863Q455 863 480 906L542 881Q523 831 494 806T424 781Q405 781 390 787T360 806Q346 816 335 821T313 826Q283 826 258 783L196 808Q215 857 243 882T313 908Z" horiz-adv-x="738" unicode="Ũ"/>
			<glyph d="M72 520H198V219Q198 157 223 121T303 85Q362 85 396 128T431 238V520H556V119Q556 65 565 0H445Q438 36 437 61H435Q380 -14 269 -14Q172 -14 122 45T72 200ZM262 715Q281 715 295 708T329 689Q344 679 353 674T373 670Q404 670 429 713L491 688Q472 638 443 613T373 588Q354 588 339 594T309 613Q295 623 284 628T262 633Q232 633 207 590L145 615Q164 664 192 689T262 715Z" horiz-adv-x="634" unicode="ũ"/>
			<glyph d="M72 708H203V266Q203 180 241 137T369 94Q458 94 496 137T535 266V708H666V256Q666 126 588 53T369 -19Q228 -19 150 53T72 256ZM223 882H522V799H223Z" horiz-adv-x="738" unicode="Ū"/>
			<glyph d="M72 520H198V219Q198 157 223 121T303 85Q362 85 396 128T431 238V520H556V119Q556 65 565 0H445Q438 36 437 61H435Q380 -14 269 -14Q172 -14 122 45T72 200ZM167 689H466V606H167Z" horiz-adv-x="634" unicode="ū"/>
			<glyph d="M72 708H203V266Q203 180 241 137T369 94Q458 94 496 137T535 266V708H666V256Q666 126 588 53T369 -19Q228 -19 150 53T72 256ZM282 912Q290 883 313 867T370 851Q403 851 426 867T457 912L528 903Q520 839 478 802T370 766H369Q302 766 260 802T211 903Z" horiz-adv-x="738" unicode="Ŭ"/>
			<glyph d="M72 520H198V219Q198 157 223 121T303 85Q362 85 396 128T431 238V520H556V119Q556 65 565 0H445Q438 36 437 61H435Q380 -14 269 -14Q172 -14 122 45T72 200ZM228 739Q244 663 317 663Q391 663 407 739L479 730Q471 656 429 616T317 577Q247 577 205 616T155 730Z" horiz-adv-x="634" unicode="ŭ"/>
			<glyph d="M72 708H203V266Q203 180 241 137T369 94Q458 94 496 137T535 266V708H666V256Q666 126 588 53T369 -19Q228 -19 150 53T72 256ZM369 992Q429 992 462 961T495 879Q495 829 462 797T370 766H369Q310 766 277 797T244 879Q244 931 277 961T369 992ZM369 928Q327 928 327 879Q327 855 338 843T369 831Q389 831 400 843T411 879Q411 928 369 928Z" horiz-adv-x="738" unicode="Ů"/>
			<glyph d="M72 520H198V219Q198 157 223 121T303 85Q362 85 396 128T431 238V520H556V119Q556 65 565 0H445Q438 36 437 61H435Q380 -14 269 -14Q172 -14 122 45T72 200ZM317 799Q377 799 410 768T443 686Q443 636 410 604T318 573H317Q258 573 225 604T192 686Q192 738 225 768T317 799ZM317 735Q275 735 275 686Q275 662 286 650T317 638Q337 638 348 650T359 686Q359 735 317 735Z" horiz-adv-x="634" unicode="ů"/>
			<glyph d="M72 708H203V266Q203 180 241 137T369 94Q458 94 496 137T535 266V708H666V256Q666 126 588 53T369 -19Q228 -19 150 53T72 256ZM349 968L426 925L316 763L259 792ZM500 960L573 909L453 756L398 791Z" horiz-adv-x="738" unicode="Ű"/>
			<glyph d="M72 520H198V219Q198 157 223 121T303 85Q362 85 396 128T431 238V520H556V119Q556 65 565 0H445Q438 36 437 61H435Q380 -14 269 -14Q172 -14 122 45T72 200ZM293 775L370 732L260 570L203 599ZM444 767L517 716L397 563L342 598Z" horiz-adv-x="634" unicode="ű"/>
			<glyph d="M72 708H203V266Q203 180 241 137T369 94Q458 94 496 137T535 266V708H666V256Q666 167 628 104T520 9Q416 -70 416 -127Q416 -146 428 -156T461 -167Q491 -167 522 -152L546 -221Q501 -248 447 -248Q396 -248 360 -221T325 -145Q325 -109 344 -76T400 -18Q390 -19 369 -19Q228 -19 150 53T72 256Z" horiz-adv-x="738" unicode="Ų"/>
			<glyph d="M72 520H198V219Q198 157 223 121T303 85Q362 85 396 128T431 238V520H556V119Q556 65 565 0H542Q490 -36 464 -66T438 -127Q438 -146 450 -156T483 -167Q513 -167 544 -152L568 -221Q523 -248 469 -248Q418 -248 382 -221T347 -145Q347 -102 373 -64T445 2Q438 36 437 61H435Q380 -14 269 -14Q172 -14 122 45T72 200Z" horiz-adv-x="634" unicode="ų"/>
			<glyph d="M7 708H142L281 174H284L434 708H567L718 174H721L863 708H992L788 0H659L500 540H497L341 0H211ZM453 920H549L674 816L630 761L501 845L373 760L329 816Z" horiz-adv-x="1000" unicode="Ŵ"/>
			<glyph d="M9 520H141L227 139H229L343 520H473L588 139H590L678 520H805L660 0H524L406 384H404L289 0H154ZM360 745H457V744L584 619L537 569L409 668L280 567L233 619Z" horiz-adv-x="814" unicode="ŵ"/>
			<glyph d="M-18 708H132L301 407H303L470 708H615L362 301V0H231V303ZM251 920H347L472 816L428 761L299 845L171 760L127 816Z" horiz-adv-x="598" unicode="Ŷ"/>
			<glyph d="M-2 520H134L261 130H263L377 520H506L291 -104Q264 -183 220 -220T104 -257Q54 -257 15 -242L39 -149Q62 -156 85 -156Q121 -156 140 -136T175 -77L200 -4ZM204 745H301V744L428 619L381 569L253 668L124 567L77 619Z" horiz-adv-x="505" unicode="ŷ"/>
			<glyph d="M-18 708H132L301 407H303L470 708H615L362 301V0H231V303ZM203 919Q270 919 270 852Q270 785 203 785Q168 785 152 803T136 852Q136 882 152 900T203 919ZM406 919Q441 919 457 900T473 852Q473 822 457 803T406 785Q339 785 339 852Q339 919 406 919Z" horiz-adv-x="598" unicode="Ÿ"/>
			<glyph d="M44 708H546V605L189 109H555V0H32V111L386 603H44ZM374 948L426 856L229 762L189 827Z" horiz-adv-x="595" unicode="Ź"/>
			<glyph d="M40 520H426V427L181 98H437V0H29V99L271 426H40ZM301 771L361 683L177 567L130 633Z" horiz-adv-x="466" unicode="ź"/>
			<glyph d="M44 708H546V605L189 109H555V0H32V111L386 603H44ZM298 933Q339 933 357 913T375 861Q375 830 356 810T298 790Q257 790 239 810T221 861Q221 933 298 933Z" horiz-adv-x="595" unicode="Ż"/>
			<glyph d="M40 520H426V427L181 98H437V0H29V99L271 426H40ZM238 754Q279 754 297 734T315 682Q315 651 296 631T238 611Q197 611 179 631T161 682Q161 754 238 754Z" horiz-adv-x="466" unicode="ż"/>
			<glyph d="M44 708H546V605L189 109H555V0H32V111L386 603H44ZM169 932L297 847L426 931L470 875L345 772H249L125 875Z" horiz-adv-x="595" unicode="Ž"/>
			<glyph d="M40 520H426V427L181 98H437V0H29V99L271 426H40ZM110 757L238 656L366 755L414 704L286 580V579H189L62 704Z" horiz-adv-x="466" unicode="ž"/>
			<glyph d="M418 722Q474 722 522 705L492 616Q467 623 437 623Q350 623 350 539V515H473V426H350V-64Q350 -157 307 -207T175 -258Q136 -258 102 -247L124 -156Q139 -159 157 -159Q195 -159 210 -136T225 -66V426H140V515H225V543Q225 627 272 674T418 722Z" unicode="ƒ"/>
			<glyph d="M299 725Q429 725 528 655L469 570Q427 596 387 608T302 620Q246 620 212 598T179 534Q179 490 213 467T326 424Q430 397 485 346T540 200Q540 128 504 78T406 5T270 -19Q199 -19 137 2T26 64L89 147Q130 117 173 104T269 91Q331 91 368 117T406 195Q406 233 388 255T336 292T244 322Q148 347 98 395T49 526Q49 589 82 634T171 702T299 725ZM295 -56Q363 -56 363 -117Q363 -189 282 -285L230 -259Q258 -216 263 -171Q227 -159 227 -117Q227 -56 295 -56Z" horiz-adv-x="575" unicode="Ș"/>
			<glyph d="M243 534Q347 534 421 479L371 400Q310 438 248 438Q208 438 186 424T164 386Q164 365 174 352T206 331T276 311Q352 292 390 254T429 156Q429 74 367 30T215 -14Q100 -14 23 45L77 123Q109 103 140 93T209 83Q252 83 275 99T299 147Q299 168 289 180T257 201T189 221Q112 240 75 277T39 378Q39 451 95 492T243 534ZM226 -56Q294 -56 294 -117Q294 -189 213 -285L161 -259Q189 -216 194 -171Q158 -159 158 -117Q158 -56 226 -56Z" horiz-adv-x="461" unicode="ș"/>
			<glyph d="M4 708H561V598H348V0H217V598H4ZM282 -56Q350 -56 350 -117Q350 -189 269 -285L217 -259Q245 -216 250 -171Q214 -159 214 -117Q214 -56 282 -56Z" horiz-adv-x="565" unicode="Ț"/>
			<glyph d="M226 682V515H355V420H226V161Q226 87 293 87Q320 87 339 93L357 1Q319 -14 266 -14Q188 -14 144 28T101 149V420H15V500L100 515V638ZM238 -56Q306 -56 306 -117Q306 -189 225 -285L173 -259Q201 -216 206 -171Q170 -159 170 -117Q170 -56 238 -56Z" horiz-adv-x="385" unicode="ț"/>
			<glyph d="M78 520H203V-64Q203 -157 160 -207T28 -258Q-11 -258 -45 -247L-22 -156Q-8 -159 11 -159Q49 -159 63 -136T78 -66Z" horiz-adv-x="282" unicode="ȷ"/>
			<glyph d="M157 745H254V744L381 619L334 569L206 668L77 567L30 619Z" horiz-adv-x="411" unicode="ˆ"/>
			<glyph d="M78 757L206 656L334 755L382 704L254 580V579H157L30 704Z" horiz-adv-x="412" unicode="ˇ"/>
			<glyph d="M30 689H329V606H30Z" horiz-adv-x="359" unicode="ˉ"/>
			<glyph d="M103 739Q119 663 192 663Q266 663 282 739L354 730Q346 656 304 616T192 577Q122 577 80 616T30 730Z" horiz-adv-x="385" unicode="˘"/>
			<glyph d="M107 754Q148 754 166 734T184 682Q184 651 165 631T107 611Q66 611 48 631T30 682Q30 754 107 754Z" horiz-adv-x="214" unicode="˙"/>
			<glyph d="M155 799Q215 799 248 768T281 686Q281 636 248 604T156 573H155Q96 573 63 604T30 686Q30 738 63 768T155 799ZM155 735Q113 735 113 686Q113 662 124 650T155 638Q175 638 186 650T197 686Q197 735 155 735Z" horiz-adv-x="311" unicode="˚"/>
			<glyph d="M140 9L225 0Q173 -36 147 -66T121 -127Q121 -146 133 -156T166 -167Q195 -167 227 -152L251 -221Q206 -248 152 -248Q101 -248 65 -221T30 -145Q30 -99 59 -59T140 9Z" horiz-adv-x="281" unicode="˛"/>
			<glyph d="M147 715Q166 715 180 708T214 689Q229 679 238 674T258 670Q289 670 314 713L376 688Q357 638 328 613T258 588Q239 588 224 594T194 613Q180 623 169 628T147 633Q117 633 92 590L30 615Q49 664 77 689T147 715Z" horiz-adv-x="406" unicode="˜"/>
			<glyph d="M120 775L197 732L87 570L30 599ZM271 767L344 716L224 563L169 598Z" horiz-adv-x="374" unicode="˝"/>
			<glyph d="M-89 832L-37 806Q-65 763 -70 718Q-34 706 -34 664Q-34 603 -102 603Q-170 603 -170 664Q-170 736 -89 832Z" horiz-adv-x="0" unicode="̒"/>
			<glyph d="M-99 -56Q-31 -56 -31 -117Q-31 -189 -112 -285L-164 -259Q-136 -216 -131 -171Q-167 -159 -167 -117Q-167 -56 -99 -56Z" horiz-adv-x="0" unicode="̦"/>
			<glyph d="M269 708H404L675 0H-3ZM336 574L170 103H498Z" horiz-adv-x="673" unicode="Δ"/>
			<glyph d="M396 727Q504 727 583 681T706 552T749 363Q749 272 714 208T621 106H748V0H452V107H457Q533 128 574 193T615 354Q615 473 559 543T396 614Q289 614 233 543T178 354Q178 258 219 192T340 106V0H44V107H172Q113 144 78 208T44 363Q44 469 86 552T208 681T396 727Z" horiz-adv-x="792" unicode="Ω"/>
			<glyph d="M63 520H189V222Q189 160 214 124T294 88Q353 88 387 131T422 241V520H547V119Q547 65 556 0H436Q429 36 428 61H426Q401 27 364 6T283 -14Q217 -14 185 31H182V-130Q182 -190 170 -244H54Q63 -163 63 -125Z" unicode="μ"/>
			<glyph d="M580 534L598 437Q559 422 506 421V139Q506 68 524 0H402Q380 64 380 141V421L212 420V0H87V420H5V520H482Q533 520 580 534Z" horiz-adv-x="598" unicode="π"/>
			<glyph d="M7 708H142L281 174H284L434 708H567L718 174H721L863 708H992L788 0H659L500 540H497L341 0H211ZM425 948L610 827L570 762L373 856Z" horiz-adv-x="1000" unicode="Ẁ"/>
			<glyph d="M9 520H141L227 139H229L343 520H473L588 139H590L678 520H805L660 0H524L406 384H404L289 0H154ZM347 771L518 633L472 567L287 683Z" horiz-adv-x="814" unicode="ẁ"/>
			<glyph d="M7 708H142L281 174H284L434 708H567L718 174H721L863 708H992L788 0H659L500 540H497L341 0H211ZM578 948L630 856L433 762L393 827Z" horiz-adv-x="1000" unicode="Ẃ"/>
			<glyph d="M9 520H141L227 139H229L343 520H473L588 139H590L678 520H805L660 0H524L406 384H404L289 0H154ZM472 771L532 683L348 567L301 633Z" horiz-adv-x="814" unicode="ẃ"/>
			<glyph d="M7 708H142L281 174H284L434 708H567L718 174H721L863 708H992L788 0H659L500 540H497L341 0H211ZM405 919Q472 919 472 852Q472 785 405 785Q370 785 354 803T338 852Q338 882 354 900T405 919ZM608 919Q643 919 659 900T675 852Q675 822 659 803T608 785Q541 785 541 852Q541 919 608 919Z" horiz-adv-x="1000" unicode="Ẅ"/>
			<glyph d="M9 520H141L227 139H229L343 520H473L588 139H590L678 520H805L660 0H524L406 384H404L289 0H154ZM307 726Q374 726 374 659Q374 592 307 592Q272 592 256 610T240 659Q240 689 256 707T307 726ZM510 726Q545 726 561 707T577 659Q577 629 561 610T510 592Q443 592 443 659Q443 726 510 726Z" horiz-adv-x="814" unicode="ẅ"/>
			<glyph d="M329 725Q416 725 484 699T617 620L472 431Q569 411 628 357T687 210Q687 134 653 82T562 6T434 -19Q338 -19 262 21L307 114Q337 100 365 94T426 88Q487 88 520 118T553 208Q553 268 506 304T345 354V438L463 596Q402 621 340 621Q270 621 234 591T199 484V0H68L69 493Q69 611 141 668T329 725Z" horiz-adv-x="721" unicode="ẞ"/>
			<glyph d="M-18 708H132L301 407H303L470 708H615L362 301V0H231V303ZM223 948L408 827L368 762L171 856Z" horiz-adv-x="598" unicode="Ỳ"/>
			<glyph d="M-2 520H134L261 130H263L377 520H506L291 -104Q264 -183 220 -220T104 -257Q54 -257 15 -242L39 -149Q62 -156 85 -156Q121 -156 140 -136T175 -77L200 -4ZM192 771L363 633L317 567L132 683Z" horiz-adv-x="505" unicode="ỳ"/>
			<glyph d="M105 340H505V240H105Z" unicode="–"/>
			<glyph d="M40 340H552V240H40Z" horiz-adv-x="592" unicode="—"/>
			<glyph d="M186 728L230 687Q193 649 174 618T153 551Q183 545 196 530T209 488Q209 460 191 441T141 423Q105 423 85 445T66 508Q66 567 91 616T186 728Z" horiz-adv-x="276" unicode="‘"/>
			<glyph d="M123 727Q159 727 178 705T198 642Q198 583 172 533T78 422L34 463Q71 501 89 532T111 599Q81 605 68 620T55 662Q55 690 72 708T123 727Z" horiz-adv-x="235" unicode="’"/>
			<glyph d="M135 128Q171 128 190 106T210 43Q210 -16 184 -65T90 -177L46 -136Q83 -98 101 -67T123 0Q93 6 80 21T67 63Q67 91 84 109T135 128Z" horiz-adv-x="276" unicode="‚"/>
			<glyph d="M375 728L419 687Q382 649 363 618T342 551Q372 545 385 530T398 488Q398 460 380 441T330 423Q294 423 274 445T255 508Q255 567 280 616T375 728ZM186 728L230 687Q193 649 174 618T153 551Q183 545 196 530T209 488Q209 460 191 441T141 423Q105 423 85 445T66 508Q66 567 91 616T186 728Z" horiz-adv-x="466" unicode="“"/>
			<glyph d="M324 727Q360 727 379 705T399 642Q399 583 373 533T279 422L235 463Q272 501 290 532T312 599Q282 605 269 620T256 662Q256 690 273 708T324 727ZM135 727Q171 727 190 705T210 642Q210 583 184 533T90 422L46 463Q83 501 101 532T123 599Q93 605 80 620T67 662Q67 690 84 708T135 727Z" horiz-adv-x="466" unicode="”"/>
			<glyph d="M135 128Q171 128 190 106T210 43Q210 -16 184 -65T90 -177L46 -136Q83 -98 101 -67T123 0Q93 6 80 21T67 63Q67 91 84 109T135 128ZM324 128Q360 128 379 106T399 43Q399 -16 373 -65T279 -177L235 -136Q272 -98 290 -67T312 0Q282 6 269 21T256 63Q256 91 273 109T324 128Z" horiz-adv-x="466" unicode="„"/>
			<glyph d="M232 708H357V558H521V458H357V0H232V458H67V558H232Z" horiz-adv-x="589" unicode="†"/>
			<glyph d="M232 708H357V558H521V458H357V331H521V231H357V0H232V231H67V331H232V458H67V558H232Z" horiz-adv-x="589" unicode="‡"/>
			<glyph d="M187 458Q309 458 309 337Q309 218 187 218Q66 218 66 337Q66 393 94 425T187 458Z" horiz-adv-x="375" unicode="•"/>
			<glyph d="M436 140Q476 140 493 119T511 65Q511 31 493 10T436 -10Q360 -10 360 65Q360 140 436 140ZM729 140Q769 140 786 119T804 65Q804 31 786 10T729 -10Q653 -10 653 65Q653 140 729 140ZM142 140Q182 140 199 119T217 65Q217 31 199 10T142 -10Q66 -10 66 65Q66 140 142 140Z" horiz-adv-x="871" unicode="…"/>
			<glyph d="M351 723Q417 723 467 695T545 617T573 508Q573 446 545 396T467 319T351 292Q284 292 233 319T155 396T128 508Q128 569 155 618T233 695T351 723ZM818 709H934L515 0H400ZM352 624Q300 624 273 591T247 508Q247 456 273 424T352 392Q403 392 428 424T454 508Q454 559 428 591T352 624ZM989 420Q1055 420 1105 392T1183 314T1211 205Q1211 143 1183 93T1105 16T989 -11Q922 -11 871 16T793 93T766 205Q766 266 793 315T871 392T989 420ZM1481 420Q1547 420 1597 392T1675 314T1703 205Q1703 143 1675 93T1597 16T1481 -11Q1414 -11 1363 16T1285 93T1258 205Q1258 266 1285 315T1363 392T1481 420ZM990 321Q938 321 911 288T885 205Q885 153 911 121T990 89Q1041 89 1066 121T1092 205Q1092 256 1066 288T990 321ZM1482 321Q1430 321 1403 288T1377 205Q1377 153 1403 121T1482 89Q1533 89 1558 121T1584 205Q1584 256 1558 288T1482 321Z" horiz-adv-x="1830" unicode="‰"/>
			<glyph d="M218 534L273 487L163 344L273 200L218 154L71 319V367Z" horiz-adv-x="345" unicode="‹"/>
			<glyph d="M126 534L273 367V319H274L126 154L72 200L181 344L71 487Z" horiz-adv-x="345" unicode="›"/>
			<glyph d="M282 709H398L-21 0H-136Z" horiz-adv-x="234" unicode="⁄"/>
			<glyph d="M270 722Q384 722 446 650T508 449Q508 320 446 248T270 177Q157 177 95 248T33 449Q33 578 95 650T270 722ZM271 622Q208 622 180 579T153 449Q153 362 180 319T271 277Q334 277 361 319T388 449Q388 537 361 579T271 622Z" horiz-adv-x="540" unicode="⁰"/>
			<glyph d="M216 708H341L178 392H311V514H426V392H495V294H426V191H312V294H46V381Z" horiz-adv-x="540" unicode="⁴"/>
			<glyph d="M105 708H449V610H218V509Q256 522 311 522Q386 522 434 476T483 356Q483 273 422 225T258 177Q190 177 142 196T56 255L121 325Q156 298 185 287T261 276Q306 276 333 296T361 354Q361 389 338 409T276 429Q225 429 182 409H105Z" horiz-adv-x="540" unicode="⁵"/>
			<glyph d="M311 722Q390 722 446 688L404 607Q362 629 314 629Q193 629 176 499Q203 519 235 528T309 537Q386 537 435 491T485 372Q485 316 459 271T386 202T274 177Q164 177 109 243T55 424Q55 560 122 641T311 722ZM282 447Q220 447 175 407Q176 337 199 305T275 274Q320 274 343 298T366 369Q366 408 344 427T282 447Z" horiz-adv-x="540" unicode="⁶"/>
			<glyph d="M72 708H469V615Q385 528 338 419T286 191H152Q171 317 215 418T332 609H72Z" horiz-adv-x="540" unicode="⁷"/>
			<glyph d="M270 722Q356 722 409 686T463 587Q463 552 442 520T381 466Q436 444 462 411T488 328Q488 287 461 252T384 197T267 177Q201 177 152 197T77 251T51 326Q51 374 77 404T155 461Q114 482 95 510T76 582Q76 622 101 654T170 704T270 722ZM271 636Q237 636 215 621T194 579Q194 531 265 507L291 498Q346 534 346 579Q346 604 326 620T271 636ZM242 427Q208 412 190 389T173 339Q173 304 199 286T271 269Q315 269 341 287T368 336Q368 363 348 378T279 413Z" horiz-adv-x="540" unicode="⁸"/>
			<glyph d="M269 722Q376 722 430 658T485 480Q485 336 392 258T119 181V278Q227 278 289 310T363 406Q308 367 230 367Q182 367 142 387T78 444T55 532Q55 586 80 629T154 697T269 722ZM267 627Q222 627 198 602T174 535Q174 496 197 476T260 456Q320 456 365 495Q363 567 341 597T267 627Z" horiz-adv-x="540" unicode="⁹"/>
			<glyph d="M222 627H319V526H420V437H319V335H222V437H120V526H222Z" horiz-adv-x="540" unicode="⁺"/>
			<glyph d="M120 526H420V437H120Z" horiz-adv-x="540" unicode="⁻"/>
			<glyph d="M120 611H420V521H120ZM120 452H420V363H120Z" horiz-adv-x="540" unicode="⁼"/>
			<glyph d="M311 811L380 766Q333 694 307 618T281 449Q281 357 307 281T380 133L311 88Q160 264 160 449Q160 635 311 811Z" horiz-adv-x="540" unicode="⁽"/>
			<glyph d="M230 811Q380 636 380 449Q380 347 338 256T230 88L160 133Q207 205 233 281T259 449Q259 542 233 618T160 766Z" horiz-adv-x="540" unicode="⁾"/>
			<glyph d="M270 401Q384 401 446 329T508 128Q508 -1 446 -72T270 -144Q157 -144 95 -72T33 128Q33 257 95 329T270 401ZM271 301Q208 301 180 258T153 128Q153 41 180 -1T271 -44Q334 -44 361 -1T388 128Q388 216 361 258T271 301Z" horiz-adv-x="540" unicode="₀"/>
			<glyph d="M255 387H362V-32H470V-130H101V-33H244V267L115 211L70 296Z" horiz-adv-x="540" unicode="₁"/>
			<glyph d="M265 401Q327 401 371 379T439 320T462 240Q462 190 443 154T379 78T237 -32H476V-130H81V-39L123 -5Q225 77 265 112T323 173T341 228Q341 263 318 283T255 303Q219 303 191 289T134 246L63 307Q103 353 150 377T265 401Z" horiz-adv-x="540" unicode="₂"/>
			<glyph d="M271 401Q331 401 374 382T440 331T463 259Q463 163 369 140V139Q418 132 449 102T480 18Q480 -28 455 -64T380 -122T260 -144Q194 -144 146 -124T59 -66L122 4Q156 -23 186 -34T261 -46Q304 -46 331 -28T359 25Q359 58 338 73T276 89H185V182H263Q304 182 324 196T345 243Q345 274 324 289T259 304Q193 304 135 260L75 328Q117 365 165 383T271 401Z" horiz-adv-x="540" unicode="₃"/>
			<glyph d="M216 387H341L178 71H311V193H426V71H495V-27H426V-130H312V-27H46V60Z" horiz-adv-x="540" unicode="₄"/>
			<glyph d="M105 387H449V289H218V188Q256 201 311 201Q386 201 434 155T483 35Q483 -48 422 -96T258 -144Q190 -144 142 -124T56 -66L121 4Q156 -23 185 -34T261 -45Q306 -45 333 -24T361 33Q361 68 338 88T276 108Q225 108 182 88H105Z" horiz-adv-x="540" unicode="₅"/>
			<glyph d="M311 401Q390 401 446 367L404 286Q362 308 314 308Q193 308 176 178Q203 198 235 207T309 216Q386 216 435 170T485 51Q485 -5 459 -49T386 -119T274 -144Q164 -144 109 -78T55 103Q55 239 122 320T311 401ZM282 126Q220 126 175 86Q176 16 199 -15T275 -47Q320 -47 343 -22T366 48Q366 87 344 106T282 126Z" horiz-adv-x="540" unicode="₆"/>
			<glyph d="M72 387H469V294Q385 207 338 98T286 -130H152Q171 -4 215 97T332 288H72Z" horiz-adv-x="540" unicode="₇"/>
			<glyph d="M270 401Q356 401 409 365T463 266Q463 231 442 199T381 145Q436 123 462 90T488 7Q488 -34 461 -68T384 -123T267 -144Q201 -144 152 -124T77 -70T51 5Q51 53 77 83T155 140Q114 161 95 189T76 261Q76 301 101 333T170 383T270 401ZM271 315Q237 315 215 300T194 258Q194 210 265 186L291 177Q346 213 346 258Q346 283 326 299T271 315ZM242 106Q208 91 190 68T173 18Q173 -17 199 -34T271 -52Q315 -52 341 -34T368 15Q368 42 348 57T279 92Z" horiz-adv-x="540" unicode="₈"/>
			<glyph d="M269 401Q376 401 430 337T485 159Q485 15 392 -62T119 -140V-43Q227 -43 289 -11T363 85Q308 46 230 46Q182 46 142 66T78 123T55 211Q55 265 80 308T154 376T269 401ZM267 306Q222 306 198 281T174 214Q174 175 197 155T260 135Q320 135 365 174Q363 246 341 276T267 306Z" horiz-adv-x="540" unicode="₉"/>
			<glyph d="M222 286H319V185H420V96H319V-6H222V96H120V185H222Z" horiz-adv-x="540" unicode="₊"/>
			<glyph d="M120 185H420V96H120Z" horiz-adv-x="540" unicode="₋"/>
			<glyph d="M120 270H420V180H120ZM120 111H420V22H120Z" horiz-adv-x="540" unicode="₌"/>
			<glyph d="M311 490L380 445Q333 373 307 297T281 128Q281 36 307 -40T380 -188L311 -233Q160 -57 160 128Q160 314 311 490Z" horiz-adv-x="540" unicode="₍"/>
			<glyph d="M230 490Q380 315 380 128Q380 26 338 -64T230 -233L160 -188Q207 -116 233 -40T259 128Q259 221 233 297T160 445Z" horiz-adv-x="540" unicode="₎"/>
			<glyph d="M381 729Q446 729 503 705T602 640L535 557Q504 585 464 601T385 617Q252 617 217 475H482V387H205Q204 377 204 356V335H433V247H213Q229 173 269 135T383 97Q424 97 462 114T531 160L602 76Q562 33 504 7T379 -18Q257 -18 183 50T87 247H2V335H79V356Q79 377 80 387H6V475H90Q115 594 189 661T381 729Z" unicode="€"/>
			<glyph d="M49 708H562V623H403Q443 598 461 559H562V474H479V471Q479 321 336 266L505 0H355L215 240H49V337H206Q344 337 345 474H49V559H325Q307 588 276 603T203 618H49Z" unicode="₹"/>
			<glyph d="M136 708H264V499L469 588L504 507L264 402V358L469 447L504 366L264 262V113Q339 113 381 128T442 175T460 260L577 261Q577 130 502 65T271 0H136V206L66 176L31 257L136 303V347L66 316L31 397L136 443Z" unicode="₺"/>
			<glyph d="M99 708H327Q440 708 509 653T578 494Q578 387 508 336T326 286H226V223H434V135H226V0H99V135H43V223H99V286H43V374H99ZM227 605V374H318Q378 374 413 402T449 493Q449 550 413 577T318 605Z" unicode="₽"/>
			<glyph d="M271 726Q336 726 373 690T411 593Q411 511 365 445T225 304V161Q225 87 292 87Q319 87 338 93L356 1Q318 -14 265 -14Q187 -14 143 28T100 149V219L43 180L17 233Q50 255 100 291V549Q100 637 150 681T271 726ZM274 657Q225 657 225 582V393Q275 441 296 488T318 592Q318 657 274 657Z" horiz-adv-x="449" unicode="ℓ"/>
			<glyph d="M466 726Q585 726 671 678T803 545T849 354Q849 247 803 162T671 30T466 -18Q346 -18 259 30T126 162T81 354Q81 461 126 545T259 678T466 726ZM466 644Q319 644 246 565T174 354Q174 222 246 143T466 64Q611 64 683 143T756 354Q756 485 683 564T466 644ZM317 557H477Q556 557 601 522T647 418Q647 347 599 309T476 272H407V154H317ZM407 483V346H474Q557 346 557 417Q557 483 474 483Z" horiz-adv-x="931" unicode="℗"/>
			<glyph d="M222 718Q327 718 386 673L342 599Q291 630 229 630Q162 630 162 595Q162 580 169 572T197 557T260 543Q391 516 391 415Q391 344 339 307T201 271Q101 271 31 319L76 394Q105 377 131 369T190 361Q270 361 270 402Q270 418 263 427T238 442T181 457Q113 472 81 503T49 587Q49 649 95 683T222 718ZM447 708H611L700 423H702L797 708H960V283H849L852 587H851L742 283H655L550 587H549L552 283H447Z" horiz-adv-x="1018" unicode="℠"/>
			<glyph d="M25 708H213V657H150V492H87V657H25ZM231 708H324L372 568H374L424 708H514V492H451L453 644H451L395 492H346L290 644H288L290 492H231Z" horiz-adv-x="568" unicode="™"/>
			<glyph d="M396 727Q504 727 583 681T706 552T749 363Q749 272 714 208T621 106H748V0H452V107H457Q533 128 574 193T615 354Q615 473 559 543T396 614Q289 614 233 543T178 354Q178 258 219 192T340 106V0H44V107H172Q113 144 78 208T44 363Q44 469 86 552T208 681T396 727Z" horiz-adv-x="792" unicode="Ω"/>
			<glyph d="M450 683Q588 683 673 631T795 500T832 330H215Q210 330 210 325V149Q210 129 217 121Q255 73 314 47T449 22Q525 22 584 50T698 130H765Q706 60 636 28T452 -3Q335 -3 248 42T115 164T70 332Q70 423 116 504T249 634T450 683ZM447 659Q387 659 327 635T219 562Q210 553 210 536V355Q210 350 215 350H687Q692 350 692 355V535Q692 548 682 560Q639 614 574 636T447 659Z" horiz-adv-x="902" unicode="℮"/>
			<glyph d="M178 727Q300 727 391 677T530 536T579 321Q579 167 509 76T303 -14Q218 -14 156 19T63 111T31 247Q31 324 62 379T150 464T278 493Q372 493 441 435Q421 532 351 584T168 634ZM292 395Q230 395 196 357T162 244Q162 171 197 132T302 93Q378 93 412 146T447 309V321Q413 357 377 376T292 395Z" unicode="∂"/>
			<glyph d="M269 708H404L675 0H-3ZM336 574L170 103H498Z" horiz-adv-x="673" unicode="∆"/>
			<glyph d="M27 708H687V608H595V-120H471V608H246V-120H122V608H27Z" horiz-adv-x="715" unicode="∏"/>
			<glyph d="M52 708H554V603H208L393 323V277H394L185 -11H567V-120H44V-10L261 298L52 605Z" unicode="∑"/>
			<glyph d="M105 340H505V240H105Z" unicode="−"/>
			<glyph d="M282 709H398L-21 0H-136Z" horiz-adv-x="234" unicode="∕"/>
			<glyph d="M305 423Q345 423 362 402T380 348Q380 314 362 293T305 273Q229 273 229 348Q229 423 305 423Z" unicode="∙"/>
			<glyph d="M459 708H588L377 -120H217L90 219H22V323H181L293 12Z" unicode="√"/>
			<glyph d="M257 531Q319 531 365 501T451 408Q489 471 534 501T647 531Q712 531 757 502T824 423T846 315Q846 255 823 206T755 129T644 100Q582 100 537 129T451 220Q413 160 365 130T254 100Q188 100 142 129T74 207T52 316Q52 376 75 424T144 502T257 531ZM269 435Q224 435 197 405T170 316Q170 257 196 227T268 197Q314 197 342 225T405 321Q350 435 269 435ZM632 434Q600 434 578 420T540 381T497 305Q552 196 629 196Q675 196 701 226T728 315Q728 374 702 404T632 434Z" horiz-adv-x="900" unicode="∞"/>
			<glyph d="M418 727Q457 727 490 716L468 624Q450 628 435 628Q397 628 382 605T368 535V-69Q366 -160 323 -209T193 -258Q154 -258 120 -247L142 -156Q157 -159 175 -159Q213 -159 228 -136T243 -66V538Q244 629 287 678T418 727Z" unicode="∫"/>
			<glyph d="M226 444Q254 444 276 435T326 411Q349 398 363 392T395 386Q417 386 436 399T482 444L540 408Q486 304 396 304Q368 304 346 311T297 336Q276 349 260 355T226 362Q204 362 184 349T139 304L81 341Q135 444 226 444ZM226 268Q254 268 276 259T326 235Q349 222 363 216T395 210Q417 210 436 223T482 268L540 232Q486 128 396 128Q368 128 346 135T297 160Q276 173 260 179T226 186Q204 186 184 173T139 128L81 165Q135 268 226 268Z" unicode="≈"/>
			<glyph d="M431 586L514 539L455 440H511V340H395L335 240H511V140H276L180 -20L97 27L165 140H111V240H224L284 340H111V440H344Z" unicode="≠"/>
			<glyph d="M448 638L499 559L225 384L498 210L447 130L111 334V430ZM105 100H505V0H105Z" unicode="≤"/>
			<glyph d="M105 100H505V0H105ZM162 638L499 430V334L163 130L112 210L385 384L111 559Z" unicode="≥"/>
			<glyph d="M246 708H363L566 354L363 0H246L44 354ZM303 609L166 354L303 100L444 354Z" unicode="◊"/>
			<glyph d="M323 722Q422 722 510 679Q561 722 650 722Q706 722 754 705L724 616Q700 623 669 623Q582 623 582 539V515H705V420H582V0H457V420H225V0H100V420H15V500L100 515V543Q100 627 156 674T323 722ZM325 625Q272 625 248 604T225 539V515H457V543Q457 567 462 594Q393 625 325 625Z" horiz-adv-x="714" unicode="ﬀ"/>
			<glyph d="M323 722Q438 722 541 663L499 576Q410 625 325 625Q272 625 248 604T225 539V515H560V0H435V420H225V0H100V420H15V500L100 515V543Q100 627 156 674T323 722Z" horiz-adv-x="638" unicode="ﬁ"/>
			<glyph d="M337 722Q457 722 560 676V0H435V619Q383 626 337 625Q276 625 250 604T225 539V515H348V420H225V0H100V420H15V500L100 515V543Q100 628 158 675T337 722Z" horiz-adv-x="638" unicode="ﬂ"/>
			<glyph d="M323 722Q424 722 516 677Q573 722 680 722Q795 722 898 663L856 576Q767 625 682 625Q629 625 605 604T582 539V515H917V0H792V420H582V0H457V420H225V0H100V420H15V500L100 515V543Q100 627 156 674T323 722ZM325 625Q272 625 248 604T225 539V515H457V543Q457 570 463 594Q394 625 325 625Z" horiz-adv-x="995" unicode="ﬃ"/>
			<glyph d="M323 722Q427 722 517 676Q577 722 694 722Q814 722 917 676V0H792V619Q740 626 694 625Q633 625 607 604T582 539V515H705V420H582V0H457V420H225V0H100V420H15V500L100 515V543Q100 627 156 674T323 722ZM325 625Q272 625 248 604T225 539V515H457V543Q457 570 463 594Q394 625 325 625Z" horiz-adv-x="995" unicode="ﬄ"/>
		</font>
</defs>
</svg>
